<?xml version="1.0" standalone="no"?>
<!DOCTYPE svg PUBLIC "-//W3C//DTD SVG 1.1//EN" "http://www.w3.org/Graphics/SVG/1.1/DTD/svg11.dtd" >
<svg xmlns="http://www.w3.org/2000/svg">
<metadata>Generated by IcoMoon</metadata>
<defs>
<font id="icomoon" horiz-adv-x="1024">
<font-face units-per-em="1024" ascent="960" descent="-64" />
<missing-glyph horiz-adv-x="1024" />
<glyph unicode="&#x20;" horiz-adv-x="512" d="" />
<glyph unicode="&#xe900;" glyph-name="BloodDonation" d="M537.169 949.69c-13.965 13.747-36.372 13.747-50.334 0-15.013-14.776-367.675-364.88-367.675-620.724 0-216.681 176.227-392.966 392.84-392.966s392.84 176.284 392.84 392.966c0 255.844-352.662 605.948-367.671 620.724zM512 7.746c-177.049 0-321.094 144.099-321.094 321.219 0 189.55 241.398 459.683 321.094 543.687 79.696-84.004 321.094-354.136 321.094-543.687 0-177.12-144.042-321.219-321.094-321.219zM698.275 440.983h-80.553v80.553c0 19.809-16.064 35.873-35.873 35.873h-139.708c-19.813 0-35.873-16.064-35.873-35.873v-80.553h-80.55c-19.809 0-35.873-16.064-35.873-35.873v-139.701c0-19.813 16.064-35.873 35.873-35.873h80.546v-80.553c0-19.809 16.060-35.873 35.873-35.873h139.708c19.809 0 35.873 16.064 35.873 35.873v80.553h80.553c19.809 0 35.873 16.060 35.873 35.873v139.701c0.004 19.813-16.060 35.873-35.87 35.873zM662.402 301.282h-80.553c-19.813 0-35.873-16.064-35.873-35.873v-80.553h-67.962v80.553c0 19.809-16.064 35.873-35.873 35.873h-80.546v67.955h80.546c19.809 0 35.873 16.064 35.873 35.873v80.553h67.962v-80.553c0-19.809 16.060-35.873 35.873-35.873h80.553v-67.955z" />
<glyph unicode="&#xe901;" glyph-name="Clinichistorymedicalpaperonclipboard" d="M818.694 924.532h-171.199v11.655c0 13.151-10.682 23.813-23.834 23.813h-223.312c-13.151 0-23.813-10.672-23.813-23.813v-11.655h-171.209c-29.557 0-53.6-24.043-53.6-53.6v-881.333c0-29.557 24.043-53.6 53.6-53.6h613.356c29.546 0 53.589 24.043 53.589 53.6v881.333c0.010 29.557-24.032 53.6-53.579 53.6zM812.73-4.458h-601.449v869.437h165.256v-7.125c0-13.151 10.672-23.823 23.813-23.823h223.312c13.162 0 23.823 10.672 23.823 23.823v7.125h165.245v-869.437zM305.569 396.394h412.873v-83.366h-412.873v83.366zM305.569 225.676h412.873v-83.376h-412.873v83.376zM475.282 485.712h73.457v93.305h93.294v73.447h-93.294v93.294h-73.457v-93.294h-93.294v-73.447h93.294z" />
<glyph unicode="&#xe902;" glyph-name="FirstAidKit" d="M954.333 747.68h-39.222c-6.94 20.546-26.385 35.387-49.245 35.387h-70.773c-22.86 0-42.305-14.84-49.245-35.387h-58.021v54.186c0 48.17-39.191 87.361-87.361 87.361h-176.933c-48.17 0-87.361-39.191-87.361-87.361v-54.186h-58.021c-6.94 20.546-26.385 35.387-49.245 35.387h-70.773c-22.86 0-42.305-14.84-49.245-35.387h-39.222c-38.414 0-69.667-31.253-69.667-69.667v-601.572c0-38.414 31.253-69.667 69.667-69.667h884.665c38.414 0 69.667 31.253 69.667 69.667v601.572c0 38.414-31.253 69.667-69.667 69.667zM795.093 749.892h70.773c10.366 0 18.799-8.433 18.799-18.799s-8.433-18.799-18.799-18.799h-70.773c-10.335 0-18.748 8.389-18.795 18.713 0 0.029 0.004 0.058 0.004 0.086s-0.004 0.058-0.004 0.086c0.046 10.324 8.46 18.713 18.795 18.713zM228.907 679.119c22.86 0 42.305 14.84 49.245 35.387h467.698c6.94-20.546 26.385-35.387 49.245-35.387h18.799v-639.171h-603.786v639.171h18.799zM369.348 801.866c0 29.88 24.306 54.186 54.186 54.186h176.933c29.88 0 54.186-24.306 54.186-54.186v-54.186h-285.305v54.186zM158.134 749.892h70.773c10.366 0 18.799-8.433 18.799-18.799s-8.433-18.799-18.799-18.799h-70.773c-10.344 0-18.762 8.4-18.797 18.735 0 0.022 0.002 0.042 0.002 0.064s-0.002 0.042-0.002 0.064c0.035 10.335 8.453 18.735 18.797 18.735zM33.175 76.441v601.572c0 20.124 16.369 36.492 36.492 36.492h39.222c6.94-20.546 26.385-35.387 49.245-35.387h18.799v-639.171h-107.266c-20.124 0-36.492 16.369-36.492 36.492zM990.825 76.441c0-20.124-16.369-36.492-36.492-36.492h-107.266v639.171h18.799c22.86 0 42.305 14.84 49.245 35.387h39.222c20.124 0 36.492-16.369 36.492-36.492v-601.572zM352.76 289.866h71.879v-71.879c0-28.659 23.315-51.974 51.974-51.974h70.773c28.659 0 51.974 23.315 51.974 51.974v71.879h71.879c28.659 0 51.974 23.315 51.974 51.974v70.773c0 28.659-23.315 51.974-51.974 51.974h-71.879v71.879c0 28.659-23.315 51.974-51.974 51.974h-70.773c-28.659 0-51.974-23.315-51.974-51.974v-71.879h-71.879c-28.659 0-51.974-23.315-51.974-51.974v-70.773c0-28.659 23.315-51.974 51.974-51.974zM333.961 412.613c0 10.366 8.433 18.799 18.799 18.799h88.467c9.163 0 16.587 7.425 16.587 16.587v88.467c0 10.366 8.433 18.799 18.799 18.799h70.773c10.366 0 18.799-8.433 18.799-18.799v-88.467c0-9.163 7.425-16.587 16.587-16.587h88.467c10.366 0 18.799-8.433 18.799-18.799v-70.773c0-10.366-8.433-18.799-18.799-18.799h-88.467c-9.163 0-16.587-7.425-16.587-16.587v-88.467c0-10.366-8.433-18.799-18.799-18.799h-70.773c-10.366 0-18.799 8.433-18.799 18.799v88.467c0 9.163-7.425 16.587-16.587 16.587h-88.467c-10.366 0-18.799 8.433-18.799 18.799v70.773z" />
<glyph unicode="&#xe903;" glyph-name="Hospitalmedicalsignalofacrossinacircle" d="M512.016 960c-282.345 0-511.984-229.671-511.984-511.984 0-282.345 229.638-512.049 511.984-512.049 282.28 0 511.951 229.671 511.951 512.049 0 282.313-229.671 511.984-511.951 511.984zM512.016 17.51c-237.41 0-430.506 193.096-430.506 430.539 0 237.345 193.096 430.506 430.506 430.506 237.378 0 430.474-193.161 430.474-430.506 0-237.443-193.096-430.539-430.474-430.539zM628.403 556.108v164.522c0 28.346-22.957 51.27-51.27 51.27h-110.9c-28.313 0-51.238-22.957-51.238-51.27v-164.522h-164.587c-28.313 0-51.238-22.957-51.238-51.27v-113.252c0-28.313 22.925-51.27 51.238-51.27h164.555v-164.489c0-28.313 22.925-51.27 51.238-51.27h110.933c28.28 0 51.238 22.957 51.238 51.27v164.489h164.522c28.313 0 51.27 22.957 51.27 51.27v113.252c0 28.346-22.957 51.27-51.27 51.27h-164.489z" />
<glyph unicode="&#xe904;" glyph-name="Pills" d="M833.315 366.42h-322.118l-47.151-47.151h90.199v-287.081h-219.709c-66.897 0-123.082 46.055-138.932 108.083-1.704-0.037-3.409-0.122-5.125-0.122-14.755 0-29.498 1.437-44.034 4.273 14.986-90.296 93.596-159.385 188.080-159.385h498.779c105.149 0 190.697 85.536 190.697 190.685s-85.536 190.697-190.685 190.697zM789.865 34.587h-157.888c-11.164 0-20.209 9.045-20.209 20.209s9.045 20.209 20.209 20.209h157.888c11.164 0 20.209-9.045 20.209-20.209s-9.045-20.209-20.209-20.209zM870.422 34.587h-7.84c-11.164 0-20.209 9.045-20.209 20.209s9.045 20.209 20.209 20.209h7.84c11.164 0 20.209-9.045 20.209-20.209s-9.045-20.209-20.209-20.209zM678.008 855.302c-35.877 35.89-83.771 55.648-134.842 55.648s-98.952-19.759-134.842-55.648l-352.688-352.688c-35.877-35.877-55.636-83.759-55.636-134.83s19.759-98.952 55.648-134.842c37.18-37.18 85.999-55.758 134.842-55.758 48.831 0 97.674 18.59 134.842 55.758l352.688 352.688c35.89 35.89 55.648 83.771 55.648 134.842s-19.771 98.952-55.661 134.83zM291.987 266.287c-55.977-55.965-147.041-55.965-202.993 0-26.978 26.978-41.843 63.026-41.843 101.497s14.865 74.519 41.843 101.497l155.356 155.356 202.993-202.993-155.356-155.356zM612.255 589.952l-111.638-111.638c-3.944-3.944-9.119-5.917-14.293-5.917s-10.348 1.972-14.293 5.917c-7.889 7.889-7.889 20.684 0 28.573l111.65 111.638c7.889 7.889 20.684 7.889 28.573 0s7.889-20.684 0-28.573zM669.218 646.915l-5.539-5.539c-3.944-3.944-9.119-5.917-14.293-5.917s-10.336 1.972-14.293 5.917c-7.889 7.889-7.889 20.684 0 28.573l5.539 5.539c7.889 7.889 20.684 7.889 28.573 0 7.901-7.889 7.901-20.684 0.012-28.573z" />
<glyph unicode="&#xe905;" glyph-name="add" d="M1024 374.856h-438.857v-438.857h-146.286v438.857h-438.857v146.286h438.857v438.857h146.286v-438.857h438.857v-146.286z" />
<glyph unicode="&#xe906;" glyph-name="bodyparts" d="M776.657 376.029c-11.616 31.687-54.519 150.66-115.368 341.887-71.469 224.627-132.339 242.083-149.289 242.083s-77.82-17.456-149.289-242.083c-60.817-191.127-103.746-310.184-115.368-341.887-42.918-18.5-221.596-103.535-224.126-237.756-0.648-34.338 10.409-63.347 32.852-86.216 46.887-47.783 131.807-54.914 178.251-54.914 15.669 0 25.778 0.827 26.2 0.864 10.014 0.838 18.036 8.623 19.185 18.605s-4.917 19.39-14.484 22.474c-29.542 9.529-79.87 33.853-89.147 58.561-1.586 4.227-2.725 10.209 2.577 19.048 4.417 7.358 12.649 17.14 33.073 17.14 39.898 0 92.23-35.677 106.687-58.814 5.945-9.508 11.026-18.753 15.944-27.686 16.402-29.816 31.898-57.976 71.474-82.437 42.207-26.084 85.768-28.899 102.539-28.899 1.602 0 2.825 0.026 3.637 0.053 0.806-0.026 2.034-0.053 3.637-0.053 16.771 0 60.332 2.814 102.539 28.899 39.577 24.455 55.072 52.621 71.474 82.437 4.917 8.934 9.998 18.178 15.944 27.686 14.457 23.138 66.784 58.814 106.687 58.814 20.423 0 28.656-9.782 33.068-17.14 5.307-8.839 4.164-14.826 2.577-19.053-9.276-24.708-59.605-49.032-89.131-58.551-9.571-3.073-15.648-12.475-14.505-22.468s9.176-17.788 19.195-18.621c0.427-0.032 10.541-0.864 26.2-0.864 0.005 0 0.005 0 0.011 0 46.45 0 131.353 7.136 178.24 54.914 22.447 22.874 33.5 51.884 32.852 86.221-2.54 134.221-181.218 219.256-224.137 237.756z" />
<glyph unicode="&#xe907;" glyph-name="broken" d="M317.645 600.424c32.325-31.294 66.423-63.78 100.65-96.944 44.733 6.575 89.241 14.374 134.329 19.659-50.373 54.66-98.555 111.318-144.739 163.496-46.474 52.855-73.965 117.312-105.355 165.107-15.309 24.3-31.681 44.379-47.312 61.009-15.18 17.049-32.164 28.361-48.44 35.58-32.486 14.245-62.556 11.441-62.556 11.441l-65.263-27.298c-36.322-15.276-54.789-55.562-42.51-93.012 1.966-5.962 4.286-12.279 6.994-18.983 23.559-55.433 90.498-90.885 113.993-107.354 46.345-33.518 109.545-63.845 160.208-112.703zM991.352 138.749c0 50.341-39.383 91.304-87.952 91.304-14.213 0-27.62-3.481-39.545-9.701-6.317 2.707-12.408 5.995-17.758 10.055-21.303 18.531-42.542 40.286-66.101 62.459-23.205 22.27-47.666 45.958-73.030 70.42-39.512 38.545-79.895 80.572-120.084 123.403-44.959-3.255-89.306-10.345-133.588-17.532 7.509-7.445 15.115-14.567 22.56-22.141 52.823-53.145 104.453-107.579 151.378-160.015 23.301-26.363 45.7-51.888 67.068-76.124 20.981-24.429 41.801-46.732 59.43-68.84 7.67-11.28 11.925-25.074 15.566-38.707-13.246-17.629-21.174-39.641-21.174-63.78 0-57.206 44.669-103.583 99.748-103.583 55.046 0 99.748 46.345 99.748 103.583 0 6.542-0.645 12.924-1.74 19.208 27.136 15.566 45.475 45.507 45.475 79.991zM662.685 607.225c3.996-5.060 9.926-7.735 15.953-7.735 4.319 0 8.669 1.321 12.344 4.254l177.515 137.777c8.766 6.865 10.378 19.498 3.545 28.265-6.8 8.798-19.466 10.474-28.297 3.545l-177.483-137.745c-8.831-6.865-10.41-19.563-3.577-28.361zM532.836 655.374c1.805-9.669 10.249-16.437 19.788-16.437 1.225 0 2.449 0.129 3.706 0.322 10.958 2.095 18.145 12.666 16.082 23.559l-36.87 196.627c-2.095 11.022-12.601 18.145-23.559 16.147-10.926-1.998-18.145-12.634-16.050-23.495l36.902-196.724zM676.060 505.608c-3.352-10.603 2.449-21.948 13.053-25.332l190.697-60.622c2.063-0.677 4.125-0.935 6.123-0.935 8.573 0 16.501 5.511 19.208 14.084 3.352 10.571-2.482 21.948-13.085 25.299l-190.697 60.686c-10.539 3.255-21.98-2.546-25.299-13.182zM616.308 642.644c1.257-0.193 2.449-0.322 3.642-0.322 9.604 0 18.080 6.832 19.821 16.63l23.495 129.366c1.998 10.99-5.253 21.464-16.211 23.462-10.893 1.708-21.496-5.253-23.43-16.243l-23.527-129.43c-1.966-10.926 5.285-21.432 16.211-23.462zM838.75 535.677c0.419-0.064 0.806-0.064 1.289-0.064 10.571 0 19.434 8.251 20.111 18.854 0.709 11.183-7.703 20.82-18.822 21.432l-131.267 8.444c-11.28 0.773-20.691-7.67-21.4-18.854-0.677-11.151 7.703-20.691 18.822-21.432l131.267-8.379zM356.158 373.986c-6.832 8.734-19.466 10.345-28.297 3.481l-177.451-137.777c-8.798-6.832-10.41-19.466-3.577-28.297 3.996-5.124 9.959-7.799 15.953-7.799 4.319 0 8.669 1.386 12.344 4.286l177.483 137.777c8.798 6.832 10.442 19.498 3.545 28.329zM486.040 325.836c-2.030 10.958-12.344 18.112-23.527 16.082-10.958-1.998-18.177-12.634-16.082-23.527l36.902-196.659c1.773-9.701 10.249-16.469 19.756-16.469 1.225 0 2.482 0.097 3.771 0.355 10.958 2.030 18.145 12.634 16.114 23.495l-36.934 196.724zM323.608 461.551c8.541 0 16.501 5.447 19.24 14.052 3.384 10.571-2.514 21.98-13.117 25.332l-190.697 60.654c-10.571 3.287-21.948-2.482-25.364-13.117-3.384-10.571 2.514-21.915 13.149-25.299l190.697-60.622c2.030-0.677 4.093-0.999 6.091-0.999zM402.503 338.534c-10.893 1.805-21.496-5.253-23.462-16.211l-23.559-129.398c-1.998-11.054 5.285-21.464 16.243-23.495 1.225-0.226 2.417-0.355 3.61-0.355 9.572 0 18.048 6.832 19.821 16.533l23.559 129.43c2.030 11.022-5.189 21.496-16.211 23.495zM180.094 445.566c-10.861 1.225-20.723-7.735-21.432-18.854-0.677-11.183 7.735-20.755 18.854-21.432l131.267-8.412c0.451-0.032 0.87-0.032 1.321-0.032 10.571 0 19.466 8.218 20.143 18.918 0.709 11.151-7.735 20.691-18.854 21.368l-131.299 8.444z" />
<glyph unicode="&#xe908;" glyph-name="capsules" d="M452.832 788.385c-45.397 70.99-122.869 113.373-207.235 113.373-46.835 0-92.54-13.395-132.171-38.74-55.296-35.361-93.511-90.141-107.608-154.245-14.097-64.106-2.385-129.864 32.978-185.16l266.025-415.999c45.397-70.988 122.866-113.37 207.235-113.373 0.002 0 0.002 0 0.004 0 46.831 0 92.538 13.395 132.166 38.74 55.296 35.361 93.511 90.139 107.608 154.245s2.385 129.864-32.978 185.16l-266.025 415.999zM37.733 701.753c12.221 55.582 45.356 103.075 93.3 133.735 34.361 21.974 73.979 33.59 114.564 33.59 73.164 0 140.344-36.747 179.705-98.3l124.211-194.233-358.977-229.562-124.211 194.233c-30.66 47.944-40.814 104.957-28.593 160.537zM719.921 194.245c-12.221-55.582-45.356-103.075-93.3-133.735-34.363-21.977-73.979-33.592-114.564-33.59-73.164 0.002-140.344 36.749-179.705 98.3l-124.211 194.233 358.977 229.564 124.211-194.233c30.658-47.946 40.812-104.959 28.593-160.539zM191.663 405.876c3.12-4.875 8.394-7.538 13.779-7.538 3.013 0 6.061 0.832 8.788 2.577 7.601 4.86 9.823 14.964 4.96 22.567l-97.805 152.945c-21.255 33.237-28.294 72.759-19.822 111.29 8.472 38.533 31.442 71.456 64.677 92.712 7.601 4.86 9.823 14.966 4.96 22.567-4.862 7.603-14.964 9.825-22.567 4.963-40.589-25.957-68.64-66.167-78.987-113.222s-1.749-95.324 24.207-135.913l97.81-152.947zM512.063 92.275c-50.763 0-97.361 25.48-124.653 68.154l-97.807 152.947c-4.862 7.603-14.964 9.823-22.567 4.963-7.601-4.86-9.823-14.964-4.96-22.567l97.807-152.947c33.324-52.114 90.215-83.227 152.18-83.227 9.023 0 16.339 7.315 16.339 16.339s-7.313 16.339-16.339 16.339zM641.23 342.138c-7.601-4.86-9.823-14.966-4.96-22.567 21.255-33.237 28.294-72.759 19.822-111.29-1.939-8.814 3.636-17.528 12.45-19.467 1.181-0.259 2.361-0.383 3.523-0.383 7.505 0 14.265 5.202 15.942 12.833 10.346 47.057 1.749 95.324-24.207 135.913-4.862 7.603-14.966 9.823-22.569 4.96zM1018.179 708.772c-14.097 64.104-52.312 118.884-107.608 154.245-114.15 72.994-266.404 39.52-339.405-74.633l-34.146-53.395c-4.86-7.601-2.64-17.705 4.96-22.567 7.603-4.86 17.709-2.64 22.567 4.963l34.146 53.395c63.291 98.968 195.301 127.997 294.269 64.707 47.944-30.66 81.079-78.153 93.3-133.735 12.219-55.58 2.065-112.593-28.593-160.537l-124.211-194.233-44.217 28.277c-7.605 4.86-17.709 2.64-22.567-4.963-4.86-7.601-2.64-17.705 4.96-22.567l44.219-28.277-24.643-38.533c-4.86-7.601-2.64-17.705 4.96-22.567 2.727-1.743 5.775-2.577 8.788-2.577 5.387 0 10.664 2.662 13.779 7.538l166.458 260.298c35.368 55.296 47.079 121.054 32.982 185.16zM639.975 728.032c5.387 0 10.661 2.662 13.779 7.538 27.264 42.629 73.877 68.080 124.692 68.080 28.129 0 55.553-8.030 79.312-23.223 7.599-4.86 17.707-2.64 22.565 4.963 4.86 7.603 2.64 17.705-4.963 22.567-29.022 18.561-62.536 28.37-96.914 28.37-62.019 0-118.923-31.085-152.221-83.153-4.86-7.601-2.64-17.705 4.96-22.567 2.73-1.743 5.777-2.575 8.79-2.575z" />
<glyph unicode="&#xe909;" glyph-name="check-box" d="M761.745 122.542h-622.115v622.119h485.563l139.632 139.63h-764.826v-901.377h901.375v577.17l-139.63-139.632zM292.606 557.001l-98.735-98.732 237.022-237.024 593.106 593.109-98.735 98.732-494.372-494.374z" />
<glyph unicode="&#xe90a;" glyph-name="clipboard" d="M841.034 892.074v0h-139.136l5.024-22.656c0.416-1.896 0.642-3.634 0.642-5.275v-99.338c0-13.693-11.155-24.826-24.846-24.826h-341.447c-13.693 0-24.826 11.135-24.826 24.826v99.338c0 1.654 0.206 3.379 0.626 5.275l5.024 22.656h-139.132c-23.965 0-43.466-19.49-43.466-43.461v-869.146c0-23.965 19.501-43.468 43.466-43.468h658.069c23.965 0 43.468 19.503 43.468 43.468v869.146c-0.011 23.971-19.501 43.461-43.466 43.461zM847.233-20.533c0-3.422-2.791-6.213-6.213-6.213h-658.057c-3.419 0-6.206 2.791-6.206 6.213v869.146c0 3.419 2.784 6.213 6.206 6.213h96.217v-90.021c0-34.225 27.852-62.088 62.088-62.088h341.445c34.236 0 62.088 27.852 62.088 62.088v90.021h96.217c3.422 0 6.213-2.791 6.213-6.213v-869.146zM339.888 785.162v87.422c0 12.075 9.765 21.854 21.847 21.854h81.184c0 36.207 30.749 65.561 68.693 65.561 37.924 0 68.673-29.352 68.673-65.561h81.953c12.091 0 21.867-9.779 21.867-21.854v-87.422c0-12.068-9.777-21.861-21.867-21.861h-300.517c-12.068 0-21.833 9.779-21.833 21.861zM428.966 545.239l25.44-25.44-141.656-141.674-87.367 87.381 25.447 25.44 61.92-61.929 116.216 116.223zM428.966 354.187l25.44-25.433-141.656-141.663-87.367 87.374 25.447 25.447 61.92-61.914 116.216 116.189zM493.338 500.442h294.090v-38.751h-294.090v38.751zM493.338 290.014h294.090v-38.74h-294.090v38.74z" />
<glyph unicode="&#xe90b;" glyph-name="computer" d="M79.155 753.596c3.948 0 7.835 1.603 10.621 4.409 2.805 2.785 4.409 6.673 4.409 10.621 0 3.968-1.603 7.835-4.409 10.621-2.785 2.805-6.673 4.409-10.621 4.409s-7.835-1.603-10.621-4.409c-2.805-2.785-4.409-6.673-4.409-10.621s1.603-7.835 4.409-10.621c2.785-2.805 6.653-4.409 10.621-4.409zM127.249 753.596c3.948 0 7.835 1.603 10.621 4.409 2.805 2.785 4.409 6.673 4.409 10.621s-1.603 7.835-4.409 10.621c-2.785 2.805-6.673 4.409-10.621 4.409s-7.835-1.603-10.621-4.409c-2.805-2.785-4.409-6.673-4.409-10.621s1.603-7.835 4.409-10.621c2.785-2.805 6.673-4.409 10.621-4.409zM175.342 753.596c3.948 0 7.835 1.603 10.621 4.409 2.805 2.785 4.409 6.673 4.409 10.621s-1.603 7.835-4.409 10.621c-2.785 2.805-6.673 4.409-10.621 4.409s-7.835-1.603-10.621-4.409c-2.805-2.785-4.409-6.673-4.409-10.621s1.603-7.835 4.409-10.621c2.785-2.805 6.673-4.409 10.621-4.409zM239.468 753.596h609.19c8.3 0 15.029 6.729 15.029 15.029s-6.729 15.029-15.029 15.029h-609.19c-8.3 0-15.029-6.729-15.029-15.029s6.729-15.029 15.029-15.029zM912.783 753.596h32.063c8.3 0 15.029 6.729 15.029 15.029s-6.729 15.029-15.029 15.029h-32.063c-8.3 0-15.029-6.729-15.029-15.029s6.729-15.029 15.029-15.029zM528.031 511.122h-32.063c-34.806 0-63.123-28.317-63.123-63.123v-96.188c0-34.806 28.317-63.123 63.123-63.123h32.063c34.806 0 63.123 28.317 63.123 63.123v96.188c0 34.806-28.317 63.123-63.123 63.123zM561.096 351.811c0-18.232-14.833-33.065-33.065-33.065h-32.063c-18.232 0-33.065 14.833-33.065 33.065v96.188c0 18.232 14.833 33.065 33.065 33.065h32.063c18.232 0 33.065-14.833 33.065-33.065v-96.188zM399.781 366.84h-17.033v129.252c0 8.3-6.729 15.029-15.029 15.029s-15.029-6.729-15.029-15.029v-129.252h-76.337l41.499 124.499c2.625 7.873-1.631 16.386-9.507 19.011-7.873 2.627-16.386-1.631-19.011-9.505l-48.094-144.282c-1.527-4.583-0.759-9.621 2.066-13.54s7.362-6.242 12.194-6.242h97.19v-33.065c0-8.3 6.729-15.029 15.029-15.029s15.029 6.729 15.029 15.029v33.065h17.033c8.3 0 15.029 6.729 15.029 15.029s-6.729 15.029-15.029 15.029zM768.501 366.84h-17.033v129.252c0 8.3-6.729 15.029-15.029 15.029s-15.029-6.729-15.029-15.029v-129.252h-76.337l41.499 124.499c2.625 7.873-1.631 16.386-9.507 19.011-7.873 2.627-16.386-1.631-19.011-9.505l-48.094-144.282c-1.527-4.583-0.759-9.621 2.066-13.54s7.362-6.242 12.194-6.242h97.19v-33.065c0-8.3 6.729-15.029 15.029-15.029s15.029 6.729 15.029 15.029v33.065h17.033c8.3 0 15.029 6.729 15.029 15.029s-6.729 15.029-15.029 15.029zM944.845 847.78h-865.691c-43.645 0-79.155-35.509-79.155-79.155v-641.252c0-43.645 35.509-79.155 79.155-79.155h865.691c43.645 0 79.155 35.509 79.155 79.155v641.252c0 43.645-35.509 79.155-79.155 79.155zM79.155 817.721h865.691c27.071 0 49.096-22.025 49.096-49.096v-49.096h-963.883v49.096c0 27.071 22.025 49.096 49.096 49.096zM944.845 78.277h-865.691c-27.071 0-49.096 22.025-49.096 49.096v562.098h963.883v-562.098c0-27.071-22.025-49.096-49.096-49.096z" />
<glyph unicode="&#xe90c;" glyph-name="hairs" d="M995.817 21.969v-63.669c0-12.316-9.985-22.301-22.301-22.301h-923.033c-12.316 0-22.301 9.985-22.301 22.301v63.669h967.635zM132.757 346.987c38.352-33.708 104.998-41.825 150.681-35.107 13.893 2.041 33.418 11.775 54.091 22.083 16.313 8.134 34.276 16.982 53.36 24.157-0.251 24.185 1.327 51.409 5.257 81.989h-345.663c-12.316 0-22.301-9.985-22.301-22.301v-39.824c31.288 1.015 73.632-3.808 104.574-30.998zM802.313 934.977c0.167 0.273 0.295 0.546 0.44 0.825 0.323 0.602 0.619 1.204 0.853 1.818 0.123 0.312 0.234 0.624 0.335 0.937 0.195 0.602 0.346 1.21 0.463 1.818 0.056 0.29 0.123 0.58 0.162 0.87 0.1 0.758 0.145 1.511 0.139 2.258 0 0.128 0.017 0.262 0.017 0.39-0.028 0.875-0.139 1.739-0.307 2.587-0.050 0.245-0.123 0.485-0.184 0.725-0.145 0.602-0.312 1.193-0.524 1.773-0.1 0.284-0.217 0.563-0.335 0.836-0.223 0.535-0.479 1.054-0.753 1.561-0.139 0.256-0.273 0.513-0.424 0.764-0.346 0.563-0.725 1.098-1.126 1.622-0.117 0.151-0.223 0.318-0.346 0.463-0.541 0.647-1.126 1.254-1.751 1.818-0.156 0.139-0.329 0.256-0.491 0.39-0.485 0.407-0.987 0.786-1.516 1.132-0.24 0.156-0.491 0.295-0.742 0.44-0.485 0.279-0.987 0.535-1.5 0.758-0.268 0.117-0.53 0.234-0.803 0.335-0.569 0.212-1.148 0.374-1.745 0.513-0.229 0.056-0.446 0.128-0.68 0.167-0.825 0.151-1.661 0.229-2.52 0.223-0.139 0-0.279-0.028-0.413-0.033-0.714-0.028-1.427-0.112-2.152-0.251-0.273-0.056-0.546-0.128-0.82-0.201-0.63-0.162-1.26-0.379-1.89-0.636-0.262-0.106-0.53-0.206-0.792-0.329-0.875-0.413-1.751-0.892-2.62-1.505-49.971-35.213-110.98-83.991-166.81-144.526-7.443-8.073-14.797-16.352-22.017-24.838s-14.312-17.172-21.236-26.064c-44.981-57.782-82.831-124.032-102.974-197.569-1.734-6.333-3.373-12.528-4.94-18.632-0.574-2.236-1.098-4.399-1.65-6.607-0.942-3.758-1.884-7.515-2.765-11.189-0.669-2.776-1.288-5.492-1.923-8.223-0.68-2.938-1.36-5.865-2.002-8.748-0.68-3.061-1.332-6.071-1.968-9.065-0.507-2.369-0.998-4.722-1.477-7.047-0.68-3.306-1.332-6.573-1.962-9.801-0.346-1.79-0.68-3.557-1.015-5.324-0.675-3.602-1.338-7.175-1.946-10.677-0.184-1.059-0.357-2.096-0.535-3.144-1.5-8.781-2.821-17.294-3.942-25.473h-0.017c-3.59-26.237-5.28-49.363-5.598-69.802 0 0 0.006 0 0.006 0-0.19-12.528 0.128-24.046 0.853-34.611 0.006-0.056 0.006-0.117 0.011-0.173 0.24-3.501 0.53-6.897 0.859-10.186v0c4.733-47.44 17.796-73.755 26.499-87.169 0.139-0.217 0.284-0.424 0.429-0.641 5.586-8.43 9.929-11.574 9.929-11.574 6.83-6.155 15.070-10.598 24.124-12.817 0 0 0 0-0.006 0 1.94-0.474 3.919-0.836 5.926-1.109 0.212-0.028 0.418-0.067 0.63-0.089 2.080-0.256 4.198-0.413 6.345-0.413 0.017 0 0.033 0 0.050 0 1.7 0 3.373 0.112 5.040 0.268 0.624 0.061 1.238 0.139 1.857 0.217 1.031 0.134 2.046 0.301 3.055 0.491 0.73 0.139 1.466 0.262 2.185 0.429 1.31 0.301 2.598 0.652 3.869 1.048 0.067 0.022 0.139 0.033 0.212 0.056h-0.006c23.55 7.365 40.733 30.279 40.733 57.447 0 0-0.156 12.884 0.396 34.711v0c0 0.011 0 0.022 0 0.028 1.16 45.845 5.453 131.107 20.835 219.318 0.045 0.245 0.084 0.491 0.128 0.736 0.825 4.722 1.684 9.456 2.576 14.195 0.033 0.173 0.067 0.346 0.1 0.518 1.79 9.472 3.713 18.956 5.781 28.406 0.084 0.39 0.167 0.781 0.256 1.171 0.976 4.449 1.99 8.887 3.033 13.314 0.145 0.63 0.295 1.254 0.446 1.879 1.043 4.377 2.113 8.742 3.217 13.091 0.134 0.524 0.268 1.043 0.401 1.567 2.297 8.948 4.739 17.818 7.326 26.577 0.173 0.591 0.346 1.182 0.518 1.767 1.238 4.137 2.509 8.24 3.813 12.321 0.234 0.736 0.474 1.472 0.708 2.208 1.316 4.059 2.659 8.084 4.042 12.076 0.212 0.608 0.429 1.21 0.641 1.818 1.461 4.17 2.949 8.307 4.494 12.388 34.801 92.197 112.597 192.83 173.646 262.888 0.725 0.808 1.316 1.656 1.84 2.514zM973.516 440.11h-351.188c-4.081-36.713-6.445-70.632-7.805-98.241 57.246-11.814 118.033-20.985 166.861-14.607 39.289 5.124 67.644 16.859 95.069 28.205 36.267 15.008 70.605 29.153 119.365 22.886v39.456c0 12.316-9.985 22.301-22.301 22.301zM893.506 314.25c-28.696-11.87-61.221-25.328-106.347-31.216-53.043-6.913-115.496 1.829-174.22 13.643-0.307-15.248-0.234-24.219-0.229-24.659 0-0.178 0.006-0.357 0.006-0.535 0-57.653-45.572-104.558-101.592-104.558-24.091 0-47.378 8.826-65.743 24.888-4.443 3.646-11.206 10.242-18.381 21.069-0.251 0.374-0.496 0.747-0.742 1.121-13.843 21.375-26.605 52.513-32.281 97.332-12.528-5.363-24.793-11.429-36.546-17.283-23.946-11.942-46.57-23.215-67.499-26.293-11.725-1.723-24.397-2.643-37.549-2.643-51.231 0-109.86 13.921-149.065 48.376-20.494 18.014-51.71 20.823-75.132 19.837v-266.746h967.64v266.763c-0.987 0.151-1.918 0.29-2.933 0.44-38.502 5.659-65.375-5.464-99.389-19.536z" />
<glyph unicode="&#xe90d;" glyph-name="healthcare" d="M944.845 639.373h-241.472v241.472c0 43.645-35.509 79.155-79.155 79.155h-224.438c-43.645 0-79.155-35.509-79.155-79.155v-241.472h-241.472c-43.645 0-79.155-35.509-79.155-79.155v-224.438c0-43.645 35.509-79.155 79.155-79.155h241.472v-241.472c0-43.645 35.509-79.155 79.155-79.155h224.438c43.645 0 79.155 35.509 79.155 79.155v241.472h241.472c43.645 0 79.155 35.509 79.155 79.155v224.438c0 43.645-35.509 79.155-79.155 79.155zM993.941 335.78c0-27.071-22.025-49.096-49.096-49.096h-256.501c-8.3 0-15.029-6.729-15.029-15.029v-256.501c0-27.071-22.025-49.096-49.096-49.096h-224.438c-27.071 0-49.096 22.025-49.096 49.096v256.501c0 8.3-6.729 15.029-15.029 15.029h-256.501c-27.071 0-49.096 22.025-49.096 49.096v224.438c0 27.071 22.025 49.096 49.096 49.096h256.501c8.3 0 15.029 6.729 15.029 15.029v256.501c0 27.071 22.025 49.096 49.096 49.096h224.438c27.071 0 49.096-22.025 49.096-49.096v-256.501c0-8.3 6.729-15.029 15.029-15.029h256.501c27.071 0 49.096-22.025 49.096-49.096v-224.438zM592.153 865.815h17.037v-241.472c0-43.645 35.509-79.155 79.155-79.155h64.127c8.3 0 15.029 6.729 15.029 15.029s-6.729 15.029-15.029 15.029h-64.127c-27.071 0-49.096 22.025-49.096 49.096v256.501c0 8.3-6.729 15.029-15.029 15.029h-32.067c-8.3 0-15.029-6.729-15.029-15.029s6.727-15.029 15.029-15.029zM816.599 545.189h32.057c8.3 0 15.029 6.729 15.029 15.029s-6.729 15.029-15.029 15.029h-32.057c-8.3 0-15.029-6.729-15.029-15.029s6.729-15.029 15.029-15.029zM287.56 545.189h48.096c43.645 0 79.155 35.509 79.155 79.155v241.472h113.219c8.3 0 15.029 6.729 15.029 15.029s-6.729 15.029-15.029 15.029h-128.248c-8.3 0-15.029-6.729-15.029-15.029v-256.501c0-27.071-22.025-49.096-49.096-49.096h-48.096c-8.3 0-15.029-6.729-15.029-15.029s6.729-15.029 15.029-15.029zM944.845 575.248h-32.063c-8.3 0-15.029-6.729-15.029-15.029s6.729-15.029 15.029-15.029h17.033v-194.38h-241.472c-43.645 0-79.155-35.509-79.155-79.155v-241.472h-194.38v241.472c0 43.645-35.509 79.155-79.155 79.155h-241.472v194.38h129.252c8.3 0 15.029 6.729 15.029 15.029s-6.729 15.029-15.029 15.029h-144.282c-8.3 0-15.029-6.729-15.029-15.029v-224.438c0-8.3 6.729-15.029 15.029-15.029h256.501c27.071 0 49.096-22.025 49.096-49.096v-256.501c0-8.3 6.729-15.029 15.029-15.029h224.438c8.3 0 15.029 6.729 15.029 15.029v256.501c0 27.071 22.025 49.096 49.096 49.096h256.501c8.3 0 15.029 6.729 15.029 15.029v224.438c0 8.3-6.729 15.029-15.029 15.029z" />
<glyph unicode="&#xe90e;" glyph-name="hospital" d="M36.364 314.666h342.303v-342.303c0-20.121 16.242-36.364 36.364-36.364h193.939c20.121 0 36.364 16.242 36.364 36.364v342.303h342.303c20.121 0 36.364 16.242 36.364 36.364v193.939c0 20.121-16.242 36.364-36.364 36.364h-342.303v342.303c0 20.121-16.242 36.364-36.364 36.364h-193.939c-20.121 0-36.364-16.242-36.364-36.364v-342.303h-342.303c-20.121 0-36.364-16.242-36.364-36.364v-193.939c0-20.121 16.242-36.364 36.364-36.364z" />
<glyph unicode="&#xe90f;" glyph-name="kidneys" d="M931.547 321.617c-48.317-272.504-233.169-385.618-321.391-385.618-88.717 0-147.593 138.665-154.014 154.48-3.637 8.963-0.277 19.239 7.952 24.322 8.225 5.088 18.922 3.478 25.303-3.795 0.287-0.317 33.632-37.234 77.084-37.234h0.005c4.91 0 9.855 0.476 14.7 1.417 8.72 1.694 15.924 7.863 22.023 18.862 35.812 64.534 12.912 251.67-29.921 363.585-40.42 105.593-107.57 127.755-156.784 127.755-30.937 0-53.698-8.7-53.921-8.789-5.703-2.215-12.188-1.694-17.44 1.452-3.493 2.096-85.378 52.821-69.048 181.473 12.025 94.628 135.925 200.474 283.756 200.474 56.696 0 110.448-15.662 159.762-46.544 189.246-118.514 260.553-317.64 211.934-591.839zM542.268 209.895c-0.183 0.010-12.505 0.664-36.070 6.738l42.803 68.101c5.827 9.27 3.032 21.503-6.233 27.325-9.28 5.827-21.503 3.032-27.33-6.233l-48.407-77.019c-2.021 0.723-4.013 1.427-6.114 2.205-37.601 13.947-55.071 38.745-61.18 49.541 2.661 9.112 8.428 27.226 18.575 52.306 1.784 1.739 6.857 6.129 18.932 13.402 10.895 6.56 57.379 8.894 93.925 6.961 10.935-0.535 20.259 7.813 20.839 18.743s-7.808 20.259-18.733 20.839c-14.562 0.778-53.431 2.16-84.372-2.75 24.476 33.741 55.383 62.498 55.804 62.884 8.036 7.432 8.537 19.967 1.11 28.003-7.417 8.036-19.957 8.537-27.994 1.12-2.596-2.398-63.845-59.302-87.578-113.694-2.75-6.297-5.272-12.282-7.595-17.97v-0.005c-8.626-21.087-14.428-37.809-18.084-49.308-22.603 3.443-62.334 7.804-96.387 2.859-3.746 29.287-7.457 74.468-1.501 100.48 7.392 32.25 15.766 36.52 64.534 48.486 54.451 13.358 108.060 70.341 110.315 72.759 7.467 8.007 7.026 20.547-0.981 28.008-8.002 7.467-20.542 7.021-28.008-0.981-13.12-14.071-55.001-52.519-90.764-61.294-51.305-12.585-80.953-22.42-93.726-78.124-8.116-35.425-2.383-90.878 1.432-118.97-55.492-17.574-135.846-52.628-139.933-54.417-10.023-4.385-14.596-16.073-10.216-26.101 4.39-10.023 16.058-14.606 26.106-10.211 1.169 0.515 117.682 51.36 162.501 60.149 33.151 6.496 78.377 0.277 97.522-2.943 9.607-16.667 33.572-49.095 81.682-66.942 8.106-3.007 15.662-5.599 22.747-7.888 0.084-0.025 0.168-0.055 0.253-0.079 45.275-14.596 69.612-15.562 70.777-15.597 0.213-0.005 0.421-0.010 0.629-0.010 10.613 0 19.338 8.403 19.734 19.085 0.401 10.895-8.126 20.071-19.011 20.542z" />
<glyph unicode="&#xe910;" glyph-name="location" d="M859.412 612.589c0 191.87-155.533 347.41-347.408 347.41-191.877 0-347.414-155.54-347.414-347.41 0-122.222 63.156-229.587 158.532-291.519l188.896-385.071 188.898 385.107c95.376 61.92 158.496 169.303 158.496 291.483zM512.004 816.081c112.393 0 203.499-91.102 203.499-203.505s-91.106-203.478-203.499-203.478c-112.404 0-203.505 91.088-203.505 203.492 0 112.402 91.102 203.492 203.505 203.492z" />
<glyph unicode="&#xe911;" glyph-name="magnifier" d="M578.697 613.345c0 64.099-25.967 122.13-67.863 164.028l-0.033 0.033-0.033-0.033c-41.965 41.965-99.997 67.965-164.028 67.965-64.097 0-122.13-25.967-164.094-67.897-41.931-41.965-67.897-99.997-67.897-164.094 0-64.064 25.999-122.061 67.932-164.028 41.965-41.965 99.997-67.965 164.061-67.965 64.030 0 122.063 25.967 164.028 67.965l0.801 0.733c41.463 41.797 67.127 99.562 67.127 163.293v0zM533.333 799.972c47.797-47.799 77.363-113.796 77.363-186.627 0-72.364-29.198-137.995-76.433-185.693l-0.9-0.967c-47.763-47.763-113.763-77.329-186.657-77.329-72.897 0-138.929 29.566-186.66 77.329-47.732 47.765-77.331 113.766-77.331 186.66 0 72.864 29.566 138.862 77.297 186.593l0.1 0.067c47.732 47.732 113.763 77.331 186.593 77.331 72.897 0 138.895-29.566 186.657-77.331l-0.030-0.033zM645.329 437.218c-4.465-7.567-14.301-10.1-21.865-5.603-7.565 4.467-10.1 14.299-5.6 21.867 35.999 60.997 49.666 131.594 41.029 199.825-8.467 66.664-38.399 131.229-89.696 182.56-61.432 61.399-141.995 92.131-222.492 92.131-80.563 0-161.128-30.698-222.458-92.097l-0.067-0.033 0.033-0.033c-61.43-61.43-92.162-141.995-92.162-222.492s30.732-161.061 92.162-222.49c61.43-61.432 141.962-92.164 222.458-92.164 80.563 0 161.128 30.732 222.559 92.164 6.234 6.199 16.366 6.168 22.566-0.069 6.199-6.232 6.167-16.362-0.067-22.564-67.698-67.662-156.393-101.531-245.058-101.531-88.698 0-177.46 33.901-245.124 101.531-67.664 67.667-101.496 156.429-101.496 245.126s33.832 177.46 101.53 245.124l0.033-0.033c67.698 67.698 156.429 101.563 245.091 101.563 88.698 0 177.427-33.832 245.124-101.53 56.398-56.398 89.363-127.562 98.697-201.192 9.533-75.164-5.533-152.895-45.199-220.059zM346.706 794.672c8.832 0 15.999-7.167 15.999-15.999s-7.167-15.999-15.999-15.999c-10.4 0-20.366-1.034-29.8-2.899-9.832-1.999-19.365-4.966-28.4-8.8-8.666-3.666-17.132-8.298-25.199-13.732l-0.766-0.5c-7.532-5.099-14.733-11.132-21.433-17.833-13.567-13.598-24.567-29.698-32.065-47.399-3.799-9.033-6.766-18.566-8.767-28.4-1.867-9.399-2.899-19.365-2.899-29.767 0-8.834-7.167-15.999-15.999-15.999s-15.999 7.166-15.999 15.999c0 12.099 1.3 24.165 3.634 35.999 2.399 11.966 6.033 23.533 10.666 34.533 9.233 21.798 22.532 41.398 38.798 57.664 7.8 7.8 16.566 15.066 26.032 21.534l0.934 0.666c9.499 6.399 19.799 11.966 30.732 16.598 10.967 4.634 22.532 8.266 34.533 10.701 11.835 2.334 23.901 3.634 36 3.634zM569.198 368.219c-6.234 6.235-6.234 16.401 0 22.633 6.235 6.234 16.401 6.234 22.631 0l91.264-91.266c6.235-6.232 6.235-16.401 0-22.629-6.234-6.237-16.399-6.237-22.629 0l-91.266 91.262zM663.097 296.889v0c11.167 11.166 25.867 16.734 40.533 16.734 14.632 0 29.3-5.568 40.466-16.734l0.035-0.035 0.033 0.035 263.054-263.091c11.164-11.132 16.73-25.867 16.73-40.499 0-14.634-5.566-29.3-16.734-40.466l-0.035-0.035 0.035-0.035-0.035-0.033h-0.033c-11.132-11.167-25.867-16.735-40.534-16.735s-29.367 5.568-40.499 16.735h-0.033l-263.091 263.056c-11.132 11.166-16.732 25.863-16.732 40.534 0.072 14.704 5.673 29.405 16.841 40.569v0 0zM685.761 274.258v0l-0.035-0.035c-4.9-4.899-7.366-11.397-7.366-17.865s2.469-12.999 7.366-17.9l0.035-0.033 263.021-263.058c4.9-4.899 11.397-7.363 17.866-7.363s13.001 2.468 17.9 7.363v0l0.033 0.035 0.035-0.035c4.867 4.904 7.299 11.368 7.299 17.933 0 6.466-2.468 12.966-7.335 17.87l-263.021 263.16c-4.9 4.865-11.367 7.299-17.933 7.299-6.5-0.007-12.999-2.473-17.866-7.371z" />
<glyph unicode="&#xe912;" glyph-name="mailing" d="M808.732 893.639c-63.926 41.552-174.854 66.36-296.732 66.36-121.864 0-232.786-24.804-296.714-66.348-4.706-3.058-7.262-8.172-7.274-13.394 0-0.086-0.012-0.17-0.012-0.256v-64c0-8.836 7.164-16 16-16 26.468 0 48-21.532 48-48v-784h-16c-8.836 0-16-7.164-16-16s7.164-16 16-16h512c8.836 0 16 7.164 16 16s-7.164 16-16 16h-16v783.998c0 26.468 21.532 48 48 48 8.836 0 16 7.164 16 16v64c0 0.018-0.002 0.034-0.002 0.052 0.052 5.288-2.502 10.492-7.266 13.588zM240 831.999v32h544v-32h-544zM728.852 895.999h-433.704c58.822 20.244 136.026 32 216.852 32 80.828 0 158.030-11.756 216.852-32zM721.61 767.999h-33.606c-8.836 0-16-7.164-16-16s7.164-16 16-16h31.996v-464h-32c-8.836 0-16-7.164-16-16s7.164-16 16-16h32v-272h-416v272h320c8.836 0 16 7.164 16 16s-7.164 16-16 16h-320v464h320c8.836 0 16 7.164 16 16s-7.164 16-16 16h-321.61c-2.408 11.818-7.432 22.692-14.434 32h448.088c-7.002-9.308-12.026-20.182-14.434-32zM352 655.999v-32c0-17.644 14.356-32 32-32h256c17.644 0 32 14.356 32 32v32c0 17.644-14.356 32-32 32h-256c-17.644 0-32-14.356-32-32zM640 623.999h-256v32h256v-32z" />
<glyph unicode="&#xe913;" glyph-name="map" d="M874.040 810.037c96.705-96.705 149.96-225.28 149.96-362.041 0-136.76-53.259-265.333-149.96-362.037-96.707-96.703-225.28-149.96-362.039-149.96s-265.335 53.257-362.039 149.96c-96.705 96.705-149.962 225.28-149.962 362.037 0 136.76 53.253 265.336 149.96 362.041s225.281 149.962 362.041 149.962c136.76 0 265.333-53.257 362.039-149.962zM828.784 131.213c63.059 63.059 104.988 141.608 122.277 227.063-13.476-19.836-26.365-27.197-34.345 17.205-8.22 72.39-74.709 26.147-116.521 51.861-44.005-29.658-142.906 57.661-126.098-40.825 25.933-44.423 140.008 59.451 83.149-34.541-36.275-65.618-132.643-210.931-120.106-286.259 1.58-109.743-112.136-22.884-151.315 13.519-26.356 72.92-8.982 200.375-77.898 236.087-74.801 3.247-139.004 10.045-167.994 93.669-17.445 59.829 18.564 148.894 82.679 162.643 93.85 58.965 127.375-69.053 215.391-71.434 27.327 28.595 101.816 37.686 107.992 69.75-57.75 10.191 73.267 48.559-5.528 70.381-43.473-5.113-71.48-45.074-48.371-78.958-84.238-19.642-86.936 121.905-167.912 77.257-2.058-70.589-132.221-22.884-45.036-8.571 29.956 13.087-48.86 51.014-6.28 44.122 20.916 1.137 91.333 25.812 72.277 42.401 39.208 24.34 72.159-58.289 110.538 1.882 27.708 46.266-11.62 54.808-46.351 31.357-19.58 21.923 34.572 69.276 82.333 89.737 15.917 6.82 31.119 10.535 42.745 9.483 24.060-27.792 68.55-32.605 70.879 3.343-59.58 28.533-125.274 43.607-193.29 43.607-97.622 0-190.47-31.023-267.308-88.389 20.65-9.46 32.371-21.239 12.478-36.296-15.456-46.055-78.169-107.877-133.223-99.124-28.587-49.294-47.413-103.605-55.459-160.527 46.111-15.256 56.744-45.45 46.837-55.549-23.495-20.488-37.937-49.53-45.375-81.322 15.009-91.837 58.172-176.475 125.27-243.575 84.613-84.613 197.113-131.213 316.781-131.213 119.664 0 232.167 46.6 316.783 131.215z" />
<glyph unicode="&#xe914;" glyph-name="mouse" d="M545.449 959.999h-78.549c-162.324 0-289.478-132.286-289.478-301.162v-421.645c0-168.893 127.154-301.194 289.478-301.194h78.549c166.043 0 301.13 135.114 301.13 301.194v421.645c0 166.060-135.087 301.162-301.13 301.162zM508.961 802.177h6.077c9.498 0 17.229-7.729 17.229-17.229v-122.657c0-9.501-7.731-17.229-17.229-17.229h-6.077c-9.498 0-17.229 7.729-17.229 17.229v122.657c0 9.501 7.731 17.229 17.229 17.229zM807.196 237.193c0-144.363-117.419-261.812-261.748-261.812h-78.549c-140.243 0-250.096 115.002-250.096 261.812v421.645c0 146.79 109.855 261.78 250.096 261.78h25.167v-81.636c-22.989-7.204-39.716-28.702-39.716-54.037v-122.657c0-25.332 16.727-46.832 39.716-54.034v-101.324c0-10.874 8.817-19.691 19.691-19.691s19.691 8.817 19.691 19.691v101.181c23.238 7.052 40.201 28.667 40.201 54.177v122.659c0 25.509-16.964 47.125-40.201 54.179v81.491h14c144.329 0 261.748-117.434 261.748-261.78v-421.645z" />
<glyph unicode="&#xe915;" glyph-name="photo" d="M148.602 79.977h-49.733c-20.754 0-37.609 16.833-37.609 37.545v535.364c0 20.69 16.855 37.545 37.609 37.545h234.644c16.94 0 30.641 13.744 30.641 30.641s-13.701 30.641-30.641 30.641h-234.644c-54.549 0-98.869-44.321-98.869-98.848v-535.364c0-54.527 44.321-98.848 98.869-98.848h49.733c16.94 0 30.641 13.701 30.641 30.641 0.021 16.897-13.701 30.684-30.641 30.684zM925.131 751.734h-49.733c-16.94 0-30.641-13.744-30.641-30.641s13.765-30.641 30.641-30.641h49.733c20.754 0 37.609-16.833 37.609-37.566v-535.364c0-20.711-16.855-37.545-37.609-37.545h-219.324c-16.897 0-30.641-13.765-30.641-30.641 0-16.94 13.765-30.641 30.641-30.641h219.324c54.549 0 98.869 44.321 98.869 98.805v535.386c0 54.506-44.321 98.848-98.869 98.848zM131.918 772.531c16.94 0 30.641 13.722 30.641 30.641v6.52c0 3.516 2.877 6.371 6.371 6.371h49.392c3.495 0 6.371-2.855 6.371-6.371v-6.52c0-16.919 13.765-30.641 30.641-30.641s30.641 13.722 30.641 30.641v6.52c0 37.289-30.343 67.653-67.632 67.653h-49.392c-37.332 0-67.674-30.364-67.674-67.653v-6.52c0.021-16.919 13.744-30.641 30.641-30.641zM852.96 385.172c0 161.962-131.79 293.71-293.689 293.71s-293.646-131.748-293.646-293.71c0-161.941 131.748-293.689 293.646-293.689 161.962 0 293.689 131.769 293.689 293.689zM559.272 152.808c-128.125 0-232.343 104.26-232.343 232.364 0 128.146 104.281 232.385 232.343 232.385 128.21 0 232.428-104.26 232.428-232.385s-104.218-232.364-232.428-232.364zM559.272 579.288c-106.966 0-194.052-87.065-194.052-194.095 0-107.009 87.086-194.031 194.052-194.031 106.988 0 194.074 87.065 194.074 194.031 0.043 107.009-87.022 194.095-194.074 194.095zM559.272 252.381c-73.193 0-132.728 59.599-132.728 132.792 0 73.236 59.556 132.77 132.728 132.77 73.257 0 132.77-59.577 132.77-132.77 0.043-73.193-59.492-132.792-132.77-132.792z" />
<glyph unicode="&#xe916;" glyph-name="pill" d="M287.661-63.944c76.854 0 149.027 29.918 203.384 84.277l448.679 448.677c54.358 54.359 84.276 126.53 84.276 203.385s-29.918 149.027-84.276 203.384c-54.243 54.358-126.531 84.163-203.27 84.163-76.855 0-149.027-29.92-203.384-84.277l-448.793-448.68c-54.358-54.358-84.277-126.53-84.277-203.384s29.92-149.027 84.277-203.385c54.358-54.242 126.644-84.161 203.384-84.161zM174.264 339.397l199.045 199.046c13.361 13.36 35.058 13.36 48.419 0l180.659-180.659c13.36-13.361 13.36-35.058 0-48.419l-199.045-199.159c-30.833-30.833-72.515-48.649-116.138-48.534-42.71 0.114-82.907 16.673-113.283 46.592-63.836 63.037-63.037 167.64 0.343 231.133z" />
<glyph unicode="&#xe917;" glyph-name="placeholder" d="M186.195 239.299c0 11.413 9.25 20.663 20.663 20.663h4.929c11.413 0 20.663-9.25 20.663-20.663s-9.25-20.663-20.663-20.663h-4.929c-11.413 0-20.663 9.25-20.663 20.663zM633.919 674.242c-28.028-9.471-46.864-35.662-46.864-65.181 0-37.924 30.852-68.774 68.774-68.774h187.086c37.921 0 68.774 30.852 68.774 68.774 0 29.514-18.831 55.708-46.859 65.178-10.807 3.653-22.537-2.151-26.189-12.963s2.151-22.537 12.963-26.189c11.222-3.791 18.76-14.251 18.76-26.026 0-15.135-12.313-27.448-27.448-27.448h-187.086c-15.135 0-27.448 12.313-27.448 27.448 0 11.776 7.542 22.238 18.764 26.029 10.811 3.653 16.615 15.378 12.963 26.189-3.65 10.814-15.378 16.611-26.189 12.963zM324.781 69.951c-10.814 3.662-22.537-2.151-26.189-12.963s2.151-22.534 12.963-26.187c11.222-3.791 18.762-14.248 18.762-26.024 0-15.137-12.311-27.45-27.445-27.45h-187.088c-15.135 0-27.448 12.313-27.448 27.45 0 11.773 7.542 22.234 18.767 26.026 10.811 3.653 16.615 15.378 12.963 26.189s-15.376 16.609-26.189 12.963c-28.031-9.471-46.864-35.665-46.864-65.178 0-37.924 30.852-68.776 68.774-68.776h187.088c37.921 0 68.771 30.852 68.771 68.776-0.002 29.514-18.836 55.705-46.864 65.174zM152.554 86.387c-36.819 72.362-59.638 123.18-59.638 152.914 0 64.187 52.223 116.407 116.411 116.407s116.407-52.22 116.407-116.407c0-29.755-22.817-80.568-59.634-152.912 0 0-13.167-25.992-13.826-27.374-5.313-11.14-15.201-31.872-42.949-31.872s-37.639 20.73-42.952 31.869c-0.654 1.382-13.819 27.374-13.819 27.374zM134.241 239.301c0-25.797 38.642-101.738 55.143-134.168 0 0 17.564-35.187 18.746-36.592 0.732-1.052 1.846-0.48 2.39-0.002 1.182 1.405 3.132 5.496 4.454 8.27 0.79 1.655 14.297 28.327 14.297 28.327 16.501 32.42 55.138 108.346 55.138 134.168 0 41.4-33.681 75.081-75.081 75.081-41.404-0.002-75.087-33.683-75.087-75.083zM976.989 939.336v-148.109c0-11.413-9.25-20.663-20.663-20.663h-186.292v-95.241h16.365c11.413 0 20.663-9.25 20.663-20.663s-9.25-20.663-20.663-20.663h-74.054c-11.413 0-20.663 9.25-20.663 20.663s9.25 20.663 20.663 20.663h16.363v115.466c-0.002 0.147-0.005 0.292-0.005 0.439s0 0.294 0.005 0.439v147.232c-0.002 0.147-0.005 0.292-0.005 0.439 0 11.413 9.25 20.663 20.663 20.663h206.96c11.413 0 20.663-9.25 20.663-20.663zM935.663 918.673h-165.629v-106.782h165.629v106.782zM808.222 468.66h-592.442c-70.273 0-127.443 57.173-127.443 127.448s57.17 127.446 127.443 127.446h416.621c11.413 0 20.663 9.25 20.663 20.663s-9.25 20.663-20.663 20.663h-416.621c-93.060 0-168.769-75.712-168.769-168.772 0-93.062 75.71-168.774 168.769-168.774h592.442c70.271 0 127.441-57.17 127.441-127.446s-57.17-127.446-127.441-127.446h-416.624c-11.413 0-20.663-9.25-20.663-20.663s9.25-20.663 20.663-20.663h416.624c93.060 0 168.767 75.712 168.767 168.772s-75.707 168.772-168.767 168.772z" />
<glyph unicode="&#xe918;" glyph-name="reproduction" d="M702.661-38.462c1.297-4.455 1.048-9.31-0.913-13.715-3.213-7.194-10.352-11.824-18.225-11.824h-429.521c-5.857 0-11.42 2.574-15.207 7.035-1.696 1.996-41.509 50.1-41.509 157.903 0 44.762 31.571 95.555 62.099 144.677 23.733 38.186 48.274 77.669 48.977 102.37 0.679 23.703-18.020 57.274-39.673 96.154-27.011 48.498-60.622 108.851-68.929 176.308-14.827 120.485 41.728 316.869 44.143 325.166 2.48 8.526 10.287 14.388 19.163 14.388h186.67c8.317 0 15.765-5.159 18.684-12.947 0.374-0.993 37.577-99.646 71.857-147.641 16.020-22.431 62.233-46.982 126.791-67.352 28.697-9.050 45.006-38.959 37.133-68.080-2.954-10.906-6.785-21.887-11.4-32.643-9.419-21.972-26.317-42.402-40.641-57.159 19.333-8.412 45.061-21.857 70.844-42.048 47.306-37.044 103.702-104.505 103.702-215.521 0-139.059-83.651-227.425-142.252-272.292-26.367 29.306-57.948 61.819-87.513 85.597-65.621 52.769-84.714 67.013-85.497 67.591-8.841 6.576-21.338 4.74-27.919-4.101-6.576-8.841-4.745-21.338 4.091-27.924 0.19-0.14 19.582-14.628 84.305-66.674 49.486-39.783 107.279-108.437 130.738-137.268z" />
<glyph unicode="&#xe919;" glyph-name="stars" d="M1011.486 572.83l-367.176 6.603-120.266 347.549c-1.773 5.136-6.603 8.601-12.106 8.601-5.462-0.041-10.272-3.546-12.025-8.702l-116.251-345.491-371.211-8.56c-5.319-0.102-10.048-3.567-11.76-8.621-1.732-5.054-0.102-10.679 4.056-14.022l297.067-239.716-110.463-333.303c-1.753-5.319 0.102-11.067 4.606-14.307 4.341-3.179 10.537-3.2 15.061 0.041l300.98 222.8 301-222.8c2.221-1.63 4.83-2.486 7.561-2.486 2.609 0 5.156 0.815 7.337 2.323 4.504 3.139 6.461 8.825 4.851 14.083l-100.863 333.629 287.529 239.859c4.076 3.383 5.625 8.988 3.872 14.001-1.773 4.993-6.501 8.417-11.8 8.519zM709.080 324.636c-3.933-3.281-5.523-8.58-4.035-13.472l92.181-304.873-277.665 205.517c-2.221 1.63-4.83 2.486-7.561 2.486s-5.34-0.856-7.582-2.486l-276.238-204.478 100.598 303.548c1.651 4.993 0 10.578-4.096 13.9l-276.87 223.371 345.389 7.969c5.34 0.163 10.088 3.648 11.78 8.702l107.202 318.589 110.992-320.667c1.732-5.034 6.481-8.499 11.821-8.601l341.863-6.135-267.78-223.371z" />
<glyph unicode="&#xe91a;" glyph-name="stethoscope" d="M953.49 364.897c0 35.459-14.397 67.627-37.639 90.866-23.242 23.242-55.409 37.639-90.866 37.639-35.499 0-67.627-14.397-90.866-37.639-23.242-23.242-37.639-55.409-37.639-90.866 0-35.459 14.397-67.627 37.639-90.866 23.242-23.242 55.367-37.639 90.866-37.639 6.854 0 13.577 0.55 20.139 1.583 1.963-6.711 6.562-12.29 12.616-15.528 4.411-63.608 1.595-207.978-108.524-246.85-67.132-23.694-101.479 25.873-146.317 90.661-27.19 39.284-57.917 83.628-101.027 122.294 2.884 64.204-2.264 125.472-6.558 162.698 9.101 1.317 17.637 5.322 25.356 13.071 8.021 8.021 14.644 20.073 19.498 37.639l15.838 46.646c31.715 14.931 63.307 34.636 91.073 54.421 43.52 31.016 78.651 62.978 90.742 77.375 0.576 0.657 1.11 1.357 1.604 2.14 13.005 19.815 13.637 38.049 7.157 52.91 55.488 53.905 94.635 107.172 91.936 136.269-0.166 1.727-0.371 3.168-0.618 4.32-7.635 35.102-30.312 58.663-50.525 73.289 1.739 6.39 2.685 13.355 2.685 20.295 0 21.020-8.516 40.107-22.295 54.094h-0.082c-13.779 13.985-32.783 22.293-53.761 22.293-20.938 0-39.942-8.308-53.763-22.295h-0.082c-13.779-13.987-22.295-32.596-22.295-53.616s8.516-39.629 22.295-53.616h0.082c13.779-13.987 32.785-22.295 53.763-22.295s39.984 8.308 53.763 22.295h0.082c1.979 0 3.835 3.599 5.585 5.786 14.39-11.264 29.3-28.466 34.52-52.448l0.124-0.695c1.865-20.281-32.592-63.864-81.597-110.762-5.837 3.674-12.297 6.327-18.936 7.877-18.798 4.359-40.231 0.273-54.297-14.453-4.772-4.935-126.201-130.076-196.171-125.674-72.604 4.567-201.479 142.981-201.849 143.391-0.904 0.946-1.933 1.849-3.044 2.671-17.689 12.546-36.403 15.055-51.707 10.325-3.588-1.117-6.965-2.637-10.115-4.492-42.238 43.108-74.457 81.679-85.318 100.048-15.416 26.102 23.116 52.199 53.36 67.561 3.31-5.662 7.313-10.483 11.921-15.145h0.082c13.779-13.987 32.785-22.274 53.763-22.274 20.938 0 39.942 8.287 53.721 22.274h0.082c13.779 13.987 22.295 32.596 22.295 53.616s-8.516 39.629-22.253 53.616h-0.082c-13.779 13.985-32.783 22.293-53.763 22.293-20.978 0-39.984-8.308-53.763-22.295h-0.082c-13.779-13.987-22.295-32.951-22.295-53.971 0-3.147 0.214-6.308 0.587-9.357-39.753-20.358-99.862-61.29-69.981-111.921 11.733-19.836 46.618-61.689 91.987-107.836-1.373-3.571-2.38-6.907-2.93-10.954-2.427-17.934 3.991-41.646 24.435-62.626h0.040c30.811-37.298 63.47-66.834 94.938-88.922 38.173-26.901 74.66-44.215 103.783-54.579l16.782-39.117c5.182-14.849 12.257-26.344 21.267-34.366 9.996-8.926 21.761-13.399 35.252-13.318 0.173-0.016 0.347-0.026 0.52-0.033 3.832-31.704 8.616-83.178 7.996-138.286-28.26 20.731-61.372 38.828-101.027 52.155-79.308 26.696-137.514 8.143-173.218-31.142-19.787-21.761-32.373-49.856-37.557-80.049-5.101-29.741-3.044-61.622 6.376-91.525 19.992-63.47 72.643-118.18 159.439-125.255 119.373-9.707 160.961 99.053 172.395 212.174 32.002-32.454 56.561-67.913 78.69-99.876 52.406-75.73 92.512-133.647 181.692-102.179 130.77 46.164 133.519 211.092 128.616 280.117 4.753 4.683 7.704 11.192 7.704 18.397 0 3.884-0.879 7.551-2.413 10.854 8.171 5.143 15.738 11.15 22.528 17.94 23.244 23.242 37.641 55.409 37.641 90.866zM713.923 834.203c-9.749 0-18.551 3.907-24.927 10.243l0.042 0.042c-6.334 6.376-10.283 15.178-10.283 24.887 0 9.707 3.907 18.512 10.283 24.887l-0.042 0.042c6.376 6.376 15.178 10.283 24.927 10.283s18.551-3.949 24.927-10.283c6.294-6.418 10.243-15.22 10.243-24.927s-3.907-18.512-10.283-24.887l0.042-0.042c-6.378-6.336-15.18-10.245-24.929-10.245zM199.161 908.534c6.334 6.376 15.138 10.283 24.887 10.283s18.551-3.949 24.927-10.283c6.334-6.418 10.283-15.22 10.283-24.927s-3.949-18.512-10.325-24.845l0.042-0.042c-6.376-6.376-15.178-10.423-24.927-10.423-9.707 0-18.512 3.152-24.887 10.145h0.042c-6.334 6.993-10.283 15.316-10.283 25.025s3.907 18.579 10.283 24.955l-0.042 0.112zM329.025-32.834c-72.233 5.881-116 51.213-132.577 103.743-7.94 25.298-9.707 52.199-5.429 77.252 4.238 24.598 14.274 47.264 30.027 64.582 28.013 30.811 75.070 44.879 140.804 22.747 44.138-14.849 79.718-36.445 109.419-61.167-6.583-107.899-38.709-215.589-142.244-207.157zM446.053 412.245c-0.247 0.657-0.494 1.317-0.781 1.933l-20.486 47.551c-2.55 5.923-7.527 10.038-13.288 11.642-27.272 8.968-63.102 24.969-100.985 51.665-29.041 20.444-59.192 46.788-87.493 81.299l-0.618 0.347h0.042c-11.437 13.987-15.344 23.554-14.355 30.669 0.205 1.646 0.781 3.18 1.604 4.126 0.657 0.823 1.604 1.527 2.716 1.858 3.62 1.152 8.721 0.21 14.479-3.494 15.302-16.125 143.806-149.256 227.557-154.522 90.374-5.718 227.762 137.731 228.298 138.141l0.166 0.17c3.292 3.455 9.462 4.156 15.425 2.758 2.921-0.699 5.553-1.809 7.569-3.289 1.522-1.11 2.716-2.466 3.373-3.907 1.233-2.755 0.534-7.117-3.331-13.327-11.106-12.917-42.616-41.217-82.434-69.599-28.466-20.321-60.757-40.739-92.141-54.642-5.429-2.385-9.297-5.485-11.066-12.479h-0.082l-18.922-55.23c-0.124-0.41-0.247-0.671-0.371-1.082-2.839-10.448-5.881-16.295-9.091-19.502-1.194-1.152-2.508-1.114-3.949-1.114h-22.5c-0.618 0-1.233-0.352-1.809-0.394-2.879 0.124-5.39 0.956-7.527 2.846-3.748 3.334-7.080 9.103-10.001 17.577zM886.894 302.949c-15.838-15.838-37.72-25.626-61.908-25.626s-46.070 9.791-61.908 25.626c-15.838 15.838-25.626 37.72-25.626 61.908s9.791 46.070 25.626 61.908c15.838 15.838 37.72 25.626 61.908 25.626s46.070-9.791 61.908-25.626c15.838-15.838 25.626-37.72 25.626-61.908s-9.788-46.070-25.626-61.908zM824.985 408.212c-23.941 0-43.315-19.416-43.315-43.315s19.374-43.315 43.315-43.315c23.899 0 43.315 19.374 43.315 43.315 0 23.899-19.416 43.315-43.315 43.315z" />
<glyph unicode="&#xe91b;" glyph-name="stethoscopetwo" d="M909.678 838.867c-10.905 18.605-27.596 34.695-49.027 48.292-11.127 41.861-48.871 72.839-94.204 72.839-54.056 0-97.853-43.842-97.853-97.853 0-54.056 43.864-97.853 97.853-97.853 20.919 0 40.325 6.743 56.215 17.982 8.345-24.146-1.335-92.112-50.985-178.749-54.034-94.27-113.521-138.223-136.688-138.223-29.999 0-104.508 65.54-157.785 172.25-37.9 75.977-41.438 128.965-32.002 143.564 15.689-10.615 34.517-16.824 54.858-16.824 54.056 0 97.853 43.819 97.853 97.853 0.022 54.034-43.797 97.853-97.853 97.853-47.736 0-87.371-34.205-96.006-79.404-16.602-10.816-30.133-23.1-40.437-36.809-54.39-72.372-9.748-189.008 21.787-252.078 35.207-70.569 110.271-181.286 195.729-217.227v-194.683c0-104.129-68.544-141.205-132.66-141.205-64.071 0-132.615 37.076-132.615 141.205v40.993c65.851 22.366 113.454 84.634 113.454 157.941 0 92-74.842 166.843-166.865 166.843-91.978 0-166.82-74.842-166.82-166.843 0-74.842 49.605-138.379 117.615-159.387v-39.48c0-143.564 96.763-243.843 235.231-243.843 138.579 0 235.342 100.279 235.342 243.843v192.569c86.37 32.959 155.359 142.363 176.924 180.017 25.125 43.797 102.972 194.060 48.938 286.416zM262.426 442.892c35.385 0 64.204-28.775 64.204-64.16 0-35.407-28.82-64.182-64.204-64.182-35.407 0-64.182 28.775-64.182 64.182 0 35.385 28.775 64.16 64.182 64.16z" />
<glyph unicode="&#xe91c;" glyph-name="telephone" d="M734.288 560.024c3.433-8.1-0.333-17.501-8.435-20.935-8.1-3.433-17.501 0.333-20.935 8.433-4.401 10.334-9.836 20.301-16.134 29.635-6.368 9.435-13.634 18.2-21.535 26.135l-0.035-0.033c-8.035 8.033-16.802 15.301-26.137 21.568-9.398 6.368-19.301 11.801-29.503 16.134-8.1 3.4-11.9 12.767-8.5 20.868s12.767 11.901 20.868 8.5c12.465-5.301 24.232-11.701 35.033-19.001 11.201-7.533 21.568-16.1 30.901-25.434l-0.035-0.033 0.035-0.033c9.435-9.433 18.001-19.801 25.399-30.801 7.344-10.9 13.744-22.633 19.011-35.001zM835.929 557.891c2.264-8.535-2.801-17.301-11.334-19.568s-17.301 2.799-19.567 11.334c-6.167 22.834-15.334 44.702-27.102 65.004-11.766 20.301-26.334 39.202-43.203 56.103-16.898 16.901-35.801 31.468-56.103 43.235-20.269 11.767-42.137 20.935-65.004 27.068-8.535 2.266-13.602 11.035-11.333 19.568 2.264 8.535 11.035 13.6 19.567 11.334 25.536-6.9 50.003-17.169 72.738-30.336 22.936-13.301 44.070-29.535 62.77-48.237 18.702-18.702 34.938-39.836 48.202-62.77 13.2-22.734 23.468-47.202 30.369-72.737zM934.267 556.824c1.667-8.667-3.967-17.068-12.635-18.736s-17.067 3.967-18.734 12.634c-7.033 35.403-19.301 69.404-36.235 100.974l-0.433 0.833c-16.869 31.269-38.369 60.203-63.937 85.771l-0.067 0.067c-25.767 25.735-55.004 47.436-86.572 64.337-31.503 16.868-65.571 29.169-101.007 36.235-8.667 1.667-14.301 10.1-12.634 18.734 1.701 8.667 10.1 14.301 18.734 12.634 38.469-7.634 75.472-21.068 109.908-39.469 34.436-18.468 66.205-42.036 94.104-69.904l0.067-0.067c27.633-27.669 51.004-59.105 69.405-93.173l0.5-0.901c18.501-34.398 31.869-71.432 39.536-109.968zM1017.172 123.030c7.1-5.201 8.634-15.204 3.436-22.302-5.201-7.1-15.204-8.634-22.304-3.435l-249.415 182.814-42.003-42.003c-61.471-61.471-153.675-46.934-238.549 4.734-31.834 19.368-62.671 43.969-90.238 71.538-27.536 27.568-52.17 58.404-71.538 90.24-51.737 84.905-66.437 177.078-5.333 238.147l42.468 42.469-171.812 234.482-78.206-77.705c-60.904-60.904-76.872-141.675-45.67-239.682 32.401-101.773 114.84-221.848 249.517-357.524l5.433-5.466 0.033 0.033c9.202-9.201 16.767-16.699 22.669-22.401 130.776-126.808 247.017-204.479 345.624-234.647 94.972-29.068 173.377-13.334 232.214 45.536l0.801 0.766 1.901 1.901 20.533 21.2c6.134 6.304 16.269 6.436 22.568 0.303 6.303-6.134 6.433-16.269 0.299-22.568l-20.598-21.267-1.968-1.97-0.9-1c-67.77-67.805-156.944-86.206-264.115-53.404-103.505 31.668-224.148 111.907-358.624 242.283-9.267 8.966-16.966 16.567-23.033 22.633l0.033 0.035-0.033 0.035-5.468 5.5c-138.313 139.341-223.318 263.781-257.286 370.388-35.137 110.375-16.468 202.046 53.434 271.951l0.667 0.666 0.033-0.033 0.033 0.033 90.741 90.072c0.567 0.567 1.167 1.067 1.801 1.533 7.1 5.201 17.102 3.667 22.301-3.433l190.212-259.483c5.4-6.267 5.134-15.801-0.801-21.736l-52.17-52.17c-48.601-48.603-34.401-126.075 9.968-198.88 17.935-29.468 40.934-58.237 66.937-84.238 26.001-26.001 54.77-49.003 84.205-66.904 72.803-44.337 150.309-58.339 199.278-9.369l51.67 51.668 0.033-0.033c5.47 5.466 14.267 6.301 20.702 1.599l260.517-190.906zM947.635 53.459c7.1-5.197 8.634-15.2 3.433-22.301-5.197-7.1-15.2-8.635-22.301-3.435l-195.41 143.175c-7.1 5.197-8.634 15.2-3.433 22.302 5.197 7.1 15.2 8.634 22.301 3.433l195.41-143.175zM91.345 865.111c-5.201 7.1-3.667 17.102 3.435 22.301 7.1 5.201 17.102 3.667 22.301-3.433l143.175-195.38c5.199-7.1 3.666-17.102-3.435-22.301s-17.102-3.667-22.301 3.433l-47.703 65.171-95.472 130.209z" />
<glyph unicode="&#xe91d;" glyph-name="tooth" d="M891.806 817.612c-14.093 69.064-48.626 113.462-103.595 133.194-38.058 14.095-86.684 11.981-145.881-6.343s-102.538-27.484-130.023-27.484-70.825 9.161-130.023 27.484-107.824 20.438-145.879 6.343c-54.969-19.732-90.206-64.13-105.71-133.194-8.457-42.284-7.047-84.568 4.228-126.851s26.78-85.272 46.512-128.966 31.713-78.929 35.941-105.71c2.82-15.505 3.526-50.037 2.114-103.595-1.41-53.555 0.704-106.409 6.343-158.562 23.96-171.949 62.016-257.929 114.166-257.929 11.275 0 21.142 3.171 29.599 9.514s14.799 16.563 19.028 30.656c4.228 14.097 7.4 27.84 9.514 41.227 2.114 13.391 2.818 31.362 2.114 53.912-0.708 22.554-1.412 40.876-2.114 54.967-0.704 14.097-1.761 33.121-3.171 57.083-2.825 40.876-3.531 68.36-2.114 82.453 8.457 94.435 48.273 141.649 119.452 141.649s110.995-47.214 119.452-141.649c1.414-15.501 0.706-42.986-2.114-82.453-1.417-23.958-2.829-42.986-4.228-57.083-1.408-14.091-2.114-32.413-2.114-54.967 0-22.55 1.057-40.521 3.171-53.912 2.114-13.387 5.285-27.129 9.514-41.227 4.228-14.093 10.571-24.313 19.028-30.656s18.33-9.514 29.599-9.514c52.168 0 90.223 85.976 114.168 257.929 5.641 50.741 7.755 103.951 6.343 159.619-1.37 55.675-0.664 89.853 2.114 102.538 4.228 26.78 16.212 62.018 35.941 105.71 19.734 43.694 35.239 86.682 46.512 128.966 11.317 42.284 12.021 84.568 2.114 126.851z" />
<glyph unicode="&#xe91e;" glyph-name="view" d="M1006.407 470.242c-2.067 2.618-51.683 64.859-136.744 127.351-113.666 83.51-237.345 127.652-357.666 127.652-120.317 0-243.996-44.141-357.666-127.652-85.059-62.49-134.675-124.733-136.744-127.351l-17.586-22.242 17.588-22.244c2.069-2.618 51.685-64.862 136.744-127.354 113.67-83.508 237.35-127.649 357.666-127.649 120.319 0 243.998 44.141 357.664 127.649 85.062 62.492 134.677 124.735 136.744 127.354l17.593 22.244-17.593 22.242zM511.997 253.774c-107.095 0-194.226 87.128-194.226 194.226 0 16.779 2.139 33.067 6.158 48.609l-44.343 7.463c-4.344-17.99-6.649-36.766-6.649-56.072 0-69.179 29.55-131.579 76.675-175.272-60.663 22.408-112.247 53.852-151.178 82.291-48.233 35.228-84.38 70.858-104.988 92.981 20.617 22.13 56.76 57.755 104.988 92.981 38.932 28.438 90.518 59.883 151.178 82.293l29.747-33.531c34.742 32.532 81.401 52.483 132.637 52.483 107.095 0 194.224-87.128 194.224-194.226s-87.128-194.226-194.224-194.226zM825.56 355.019c-38.936-28.438-90.518-59.883-151.178-82.291 47.123 43.691 76.673 106.091 76.673 175.274s-29.55 131.581-76.673 175.274c60.663-22.41 112.242-53.855 151.178-82.293 48.233-35.228 84.38-70.858 104.988-92.979-20.617-22.135-56.76-57.762-104.988-92.986zM388.4 485.755c-3.645-11.946-5.62-24.618-5.62-37.757 0-71.362 57.852-129.216 129.216-129.216 71.362 0 129.214 57.852 129.214 129.216s-57.852 129.216-129.214 129.216c-34.76 0-66.289-13.751-89.516-36.078l63.736-71.842-97.817 16.461z" />
<glyph unicode="&#xe91f;" glyph-name="zoom" d="M979.736-6.822l-293.539 305.274c72.673 70.021 118.018 168.208 118.018 276.86 0 212.116-172.567 384.688-384.688 384.688s-384.688-172.567-384.688-384.688c0-212.116 172.567-384.688 384.688-384.688 79.135 0 152.758 24.041 213.981 65.176l297.542-309.439c6.633-6.894 15.486-10.366 24.348-10.366 8.421 0 16.855 3.13 23.402 9.429 13.446 12.932 13.865 34.313 0.937 47.754zM102.384 575.311c0 174.872 142.271 317.143 317.143 317.143s317.143-142.271 317.143-317.143-142.271-317.143-317.143-317.143c-174.872 0.005-317.143 142.271-317.143 317.143zM591.756 609.083h-138.457v138.457c0 18.656-15.116 33.772-33.772 33.772s-33.772-15.116-33.772-33.772v-138.457h-138.462c-18.656 0-33.772-15.116-33.772-33.772s15.116-33.772 33.772-33.772h138.457v-138.462c0-18.656 15.116-33.772 33.772-33.772s33.772 15.116 33.772 33.772v138.462h138.457c18.656 0 33.772 15.116 33.772 33.772s-15.116 33.772-33.768 33.772z" />
<glyph unicode="&#xe920;" glyph-name="linecheckbox" horiz-adv-x="1138" d="M992.37 463.757c-19.911 0-36.011-16.043-36.011-35.84v-420.181h-884.338v880.583h710.428c19.911 0 36.011 16.043 36.011 35.84s-16.1 35.84-36.011 35.84h-746.439c-19.911 0-36.011-15.986-36.011-35.783v-952.263c0-19.797 16.1-35.84 36.011-35.84h956.359c19.911 0 36.011 16.043 36.011 35.84v455.964c0 19.797-16.156 35.84-36.011 35.84zM1127.196 936.447c-14.108 13.995-36.864 13.995-50.972 0l-586.524-584.078-145.749 145.124c-14.108 13.995-36.864 13.995-50.972 0s-14.052-36.75 0-50.745l171.236-170.496c7.054-6.997 16.27-10.524 25.486-10.524s18.432 3.527 25.429 10.524l612.068 609.508c14.108 13.995 14.108 36.693 0 50.688z" />
<glyph unicode="&#xe921;" glyph-name="quotation" d="M440.893 881.87v-170.873c0-23.174-18.786-41.951-41.96-41.951-82.682 0-127.658-84.803-133.891-252.176h133.891c23.174 0 41.96-18.795 41.96-41.96v-360.79c0-23.162-18.786-41.942-41.96-41.942h-356.982c-23.183 0-41.951 18.795-41.951 41.942v360.79c0 80.236 8.079 153.865 24.004 218.867 16.333 66.651 41.406 124.926 74.498 173.214 34.051 49.625 76.645 88.566 126.607 115.695 50.3 27.293 108.793 41.136 173.839 41.136 23.16 0 41.945-18.777 41.945-41.951zM982.037 669.043c23.162 0 41.963 18.795 41.963 41.951v170.873c0 23.174-18.797 41.951-41.963 41.951-65.020 0-123.521-13.846-173.803-41.136-49.971-27.128-92.588-66.070-126.645-115.695-33.080-48.287-58.153-106.566-74.489-173.231-15.917-65.023-23.996-138.652-23.996-218.849v-360.79c0-23.162 18.792-41.942 41.96-41.942h356.971c23.162 0 41.945 18.795 41.945 41.942v360.793c0 23.162-18.78 41.96-41.945 41.96h-131.981c6.14 167.37 50.458 252.173 131.984 252.173z" />
</font>
</defs>
</svg>
