<?xml version="1.0" standalone="no"?>
<!DOCTYPE svg PUBLIC "-//W3C//DTD SVG 1.1//EN" "http://www.w3.org/Graphics/SVG/1.1/DTD/svg11.dtd" >
<svg xmlns="http://www.w3.org/2000/svg">
<defs>
  <font id="tb-icon" horiz-adv-x="1152">
    <font-face font-family="tb-icon"
      units-per-em="1024" ascent="1024"
      descent="0" />
    <missing-glyph horiz-adv-x="0" />
    <glyph glyph-name="00-star"
      unicode="&#xE001;"
      horiz-adv-x="1025" d="M516.664 272.252L248.273 109.596L319.445 414.58L83.585 619.924L394.663 646.362L516.663 933.05L638.647 646.362L951.756 619.924L713.883 414.5800000000001L785.039 109.596L516.664 272.252z" />
    <glyph glyph-name="02-star-light"
      unicode="&#xE002;"
      horiz-adv-x="1025" d="M1008.6 569.4L803.6 372.5999999999999L852.8000000000001 93.8C861.0000000000001 44.5999999999999 811.8000000000001 3.5999999999999 762.6 28.1999999999999L508.4 159.3999999999999L254.2000000000001 28.1999999999998C213.2000000000001 3.5999999999998 155.8000000000001 44.5999999999998 164.0000000000001 93.7999999999998L213.2000000000001 372.5999999999999L16.4 569.3999999999999C-16.4 602.1999999999999 0 667.8 49.2 675.9999999999999L328.0000000000001 716.9999999999999L451.0000000000001 971.1999999999998C475.6000000000001 1020.3999999999997 541.2 1020.3999999999997 557.6 971.1999999999998L680.6 716.9999999999999L975.8 675.9999999999999C1025 667.8 1049.6 602.1999999999998 1008.6 569.3999999999999zM902 594L631.4 635L508.4 881L385.4 635L131.2 594L328 405.4L278.8 143L516.6 266L754.4000000000001 143L705.2 405.4L902 594z" />
    <glyph glyph-name="03-star"
      unicode="&#xE003;"
      horiz-adv-x="1024" d="M457.01994 968.9L332.01994 715.5L52.41994 674.7C2.31994 667.4 -17.78006 605.6 18.51994 570.2L220.81994 373.1L172.91994 94.6C164.31994 44.3000000000001 217.31994 6.6 261.71994 30.1L511.91994 161.6L762.11994 30.1C806.51994 6.7 859.51994 44.3000000000001 850.91994 94.6L803.01994 373.1L1005.31994 570.2C1041.7199400000002 605.6 1021.61994 667.4000000000001 971.4199400000002 674.7L691.8199400000001 715.5L566.8199400000001 968.9C544.4199400000001 1014.1 479.6199400000001 1014.7 457.0199400000001 968.9L457.0199400000001 968.9z" />
    <glyph glyph-name="account"
      unicode="&#xE004;"
      horiz-adv-x="1025" d="M1025 127.625V63.562C1025 29.395 995.104 -0.501 960.937 -0.501H64.062C29.895 -0.501 -0.001 29.395 -0.001 63.562V127.625C-0.001 268.563 115.312 383.875 256.249 383.875C439.895 383.875 397.187 349.708 512.499 349.708S585.1030000000001 383.875 768.749 383.875C909.687 383.875 1024.999 268.562 1024.999 127.625zM512.5 285.646C392.9170000000001 285.646 427.083 319.813 256.25 319.813C149.479 319.813 64.062 234.396 64.062 127.625V63.562H960.937V127.625C960.937 234.396 875.52 319.813 768.749 319.813C597.916 319.813 636.3530000000001 285.646 512.499 285.646zM802.917 734.0830000000001C802.917 576.062 674.792 443.6660000000001 512.5 443.6660000000001S222.083 571.791 222.083 734.0830000000001S354.4790000000001 1024.5 512.5 1024.5S802.9169999999999 896.375 802.9169999999999 734.0830000000001zM290.417 734.0830000000001C290.417 614.5 388.646 512 512.5 512S738.854 614.5 738.854 738.354S636.354 960.437 512.5 960.437S290.4170000000001 857.937 290.4170000000001 734.0830000000001z" />
    <glyph glyph-name="angle-down"
      unicode="&#xE005;"
      horiz-adv-x="1025" d="M495.49997 370.2000000000001L263.49997 605.8000000000001C254.09997 615.2 254.09997 630.4000000000001 263.49997 639.8000000000001L277.69997 654C287.09997 663.4000000000001 302.2999700000001 663.4000000000001 311.69997 654L512.4999700000001 449.4000000000001L713.29997 653.8000000000001C722.69997 663.2 737.89997 663.2 747.29997 653.8000000000001L761.4999700000001 639.6000000000001C770.89997 630.2 770.89997 615 761.4999700000001 605.6000000000001L529.4999700000001 370.0000000000001C520.0999700000001 360.8000000000001 504.8999700000001 360.8000000000001 495.4999700000001 370.2000000000002z" />
    <glyph glyph-name="angle-left"
      unicode="&#xE006;"
      horiz-adv-x="1025" d="M370.61262 529.087L606.21262 761.087C615.61262 770.487 630.81262 770.487 640.21262 761.087L654.4126200000001 746.887C663.81262 737.4870000000001 663.81262 722.287 654.4126200000001 712.887L449.8126200000001 512.087L654.21262 311.2870000000001C663.61262 301.8870000000001 663.61262 286.687 654.21262 277.2870000000001L640.01262 263.087C630.61262 253.687 615.41262 253.687 606.01262 263.087L370.41262 495.087C361.21262 504.487 361.21262 519.687 370.61262 529.087z" />
    <glyph glyph-name="angle-right"
      unicode="&#xE007;"
      horiz-adv-x="1025" d="M654.3874 494.99999L418.7874 262.9999900000001C409.3874 253.5999900000001 394.1873999999999 253.5999900000001 384.7874 262.9999900000001L370.5874 277.1999900000001C361.1874 286.5999900000001 361.1874 301.7999900000001 370.5874 311.1999900000001L575.1873999999999 511.99999L370.7874 712.79999C361.3874 722.1999900000001 361.3874 737.3999900000001 370.7874 746.79999L384.9873999999999 760.99999C394.3873999999999 770.39999 409.5874 770.39999 418.9873999999999 760.99999L654.5873999999999 528.99999C663.7873999999999 519.59999 663.7873999999999 504.39999 654.3873999999998 494.99999z" />
    <glyph glyph-name="angle-up"
      unicode="&#xE008;"
      horiz-adv-x="1025" d="M529.49997 653.975L761.49997 418.375C770.8999699999999 408.975 770.8999699999999 393.775 761.49997 384.375L747.2999699999999 370.175C737.8999699999999 360.775 722.6999699999999 360.775 713.2999699999999 370.175L512.4999699999998 574.775L311.6999699999999 370.375C302.2999699999999 360.975 287.0999699999998 360.975 277.6999699999999 370.375L263.4999699999999 384.5750000000001C254.0999699999999 393.975 254.0999699999999 409.1750000000001 263.4999699999999 418.5750000000001L495.4999699999998 654.1750000000001C504.8999699999998 663.375 520.0999699999999 663.375 529.4999699999998 653.9750000000001z" />
    <glyph glyph-name="arrow-bottom"
      unicode="&#xE009;"
      horiz-adv-x="1025" d="M558.589 890.7760000000001V305.2180000000001L707.8870000000001 452.5780000000001L766.0550000000001 394.4100000000001L517.872 146.225L269.688 394.41L327.856 452.578L477.154 305.219V890.7760000000001H558.589z" />
    <glyph glyph-name="arrow-left"
      unicode="&#xE00A;"
      horiz-adv-x="1025" d="M33 504.5L340.5 811.5C345.5 816.5 351.5 819 358.5 819S371.5 816.5 376.5 811.5S384 800.5 384 793.5S381.5 780.5 376.5 775.5L113 512H947C954.333 512 960.5 509.5 965.5 504.5S973 493.333 973 486C973 479 970.5 473 965.5 468S954.333 460.5 947 460.5H113L376.5 197C381.5 192 384 186 384 179S381.5 166 376.5 161C374.167 158.333 371.416 156.417 368.25 155.25S361.834 153.5 358.5 153.5S351.916 154.083 348.75 155.25S342.834 158.333 340.5 161L33 468C28 473 25.5 479.083 25.5 486.25S28 499.5 33 504.5V504.5z" />
    <glyph glyph-name="arrow-right"
      unicode="&#xE00B;"
      horiz-adv-x="1025" d="M991 504.5L683.5 811.5C678.5 816.5 672.5 819 665.5 819S652.5 816.5 647.5 811.5S640 800.5 640 793.5S642.5 780.5 647.5 775.5L911 512H77C69.666 512 63.5 509.5 58.5 504.5S51 493.333 51 486C51 479 53.5 473 58.5 468S69.666 460.5 77 460.5H911L647.5 197C642.5 192 640 186 640 179S642.5 166 647.5 161C649.833 158.333 652.583 156.417 655.75 155.25S662.167 153.5 665.5 153.5S672.083 154.083 675.25 155.25S681.167 158.333 683.5 161L991 468C996 473 998.5 479.083 998.5 486.25S996 499.5 991 504.5V504.5z" />
    <glyph glyph-name="arrow-top"
      unicode="&#xE00C;"
      horiz-adv-x="1025" d="M477.153 146.226V731.784L327.855 584.424L269.687 642.592L517.87 890.7760000000001L766.054 642.592L707.886 584.424L558.588 731.7819999999999V146.2249999999999H477.153z" />
    <glyph glyph-name="bars"
      unicode="&#xE00D;"
      horiz-adv-x="1025" d="M948.5 796L76.5 796C69.873 796 64.5 801.373 64.5 808L64.5 808L64.5 856C64.5 862.627 69.873 868 76.5 868L76.5 868L948.5 868C955.127 868 960.5 862.627 960.5 856L960.5 856L960.5 808C960.5 801.373 955.127 796 948.5 796L948.5 796zM948.5 476L76.5 476C69.873 476 64.5 481.373 64.5 488L64.5 488L64.5 536C64.5 542.627 69.873 548 76.5 548L76.5 548L948.5 548C955.127 548 960.5 542.627 960.5 536L960.5 536L960.5 488C960.5 481.373 955.127 476 948.5 476L948.5 476zM948.5 156L76.5 156C69.873 156 64.5 161.3730000000001 64.5 168L64.5 168L64.5 216C64.5 222.627 69.873 228 76.5 228L76.5 228L948.5 228C955.127 228 960.5 222.627 960.5 216L960.5 216L960.5 168C960.5 161.3730000000001 955.127 156 948.5 156L948.5 156z" />
    <glyph glyph-name="blood-drop"
      unicode="&#xE00E;"
      horiz-adv-x="1025" d="M102.691 36.726C97.844 36.727 93.18 37.5119999999999 88.819 38.96L89.13 38.871C76.841 42.93 67.175 51.981 62.376 63.56L62.27 63.848C40.196 118.324 27.388 181.51 27.388 247.688C27.388 263.461 28.116 279.065 29.539 294.466L29.392 292.49C30.562 306.8590000000001 38.584 319.1320000000001 50.15 326.146L50.343 326.255L229.709 434.2870000000001C246.182 444.3530000000001 265.501 451.6360000000001 286.152 454.9250000000001L287.053 455.0430000000001L537.67 493.7890000000001C540.61 494.2640000000001 543.9989999999999 494.5350000000001 547.452 494.5350000000001C579.359 494.5350000000001 605.857 471.3760000000001 611.054 440.951L611.108 440.5690000000001C611.108 440.4860000000001 611.329 439.1850000000001 611.329 439.0470000000001C611.8729999999999 435.8730000000001 612.183 432.2180000000001 612.183 428.4890000000001C612.183 398.3860000000001 591.926 373.015 564.299 365.2630000000001L563.837 365.1520000000001C515.335 351.937 440.002 331.1520000000001 403.775 321.134C401.842 320.625 400.263 319.38 399.324 317.7240000000001L399.305 317.6880000000001C398.7339999999999 316.6630000000001 398.397 315.4390000000001 398.397 314.1360000000001C398.397 313.3440000000001 398.521 312.5810000000002 398.752 311.8650000000001L398.737 311.9170000000002C404.818 292.7950000000002 421.672 278.8770000000002 441.996 277.2100000000002L442.174 277.1980000000002C443.278 277.1200000000003 444.565 277.0750000000002 445.864 277.0750000000002C447.947 277.0750000000002 450.004 277.1900000000002 452.027 277.4140000000002L451.778 277.3920000000002L616.393 296.3640000000002C619.3960000000001 296.7650000000001 622.4540000000001 297.1940000000002 625.5400000000001 297.7480000000002C644.821 301.6480000000002 661.797 309.5910000000001 676.2260000000001 320.6830000000001L675.9370000000001 320.4700000000002L881.0970000000001 478.0410000000002C893.0580000000001 487.2350000000001 908.2450000000002 492.7760000000002 924.7250000000003 492.7760000000002C942.8460000000002 492.7760000000002 959.4030000000002 486.0770000000002 972.054 475.0210000000002L971.9700000000003 475.0930000000002C986.9340000000002 461.8840000000002 996.3220000000002 442.6580000000002 996.3220000000002 421.2400000000003C996.3220000000002 400.5570000000003 987.5670000000002 381.9180000000003 973.5600000000002 368.8290000000002L973.5190000000002 368.7910000000002L886.8800000000001 288.1720000000002L746.0520000000001 165.3610000000001C726.2560000000001 148.0200000000001 703.2540000000001 133.6980000000001 678.1510000000002 123.4630000000001L676.5310000000002 122.8790000000001L590.9440000000002 88.6860000000002C565.0960000000002 77.6910000000002 535.0300000000002 71.3000000000002 503.4710000000002 71.3000000000002C492.7220000000002 71.3000000000002 482.1460000000002 72.0410000000002 471.7920000000002 73.4760000000002L472.9900000000002 73.3400000000003L291.4100000000002 100.8080000000002C284.2100000000002 101.9410000000003 275.9060000000002 102.5880000000002 267.4510000000002 102.5880000000002C235.8100000000002 102.5880000000002 206.2860000000002 93.5260000000002 181.3320000000002 77.8570000000002L182.0080000000002 78.2530000000002L125.6880000000002 43.2990000000002C119.1660000000002 39.1740000000002 111.2280000000002 36.7260000000002 102.7180000000002 36.7260000000002C102.7080000000002 36.7260000000002 102.6980000000002 36.7260000000002 102.6880000000002 36.7260000000002L102.6900000000002 36.7260000000002zM547.536 466.999C545.529 466.994 543.564 466.833 541.6479999999999 466.528L541.8629999999999 466.556L291.218 427.8100000000001C273.449 424.9810000000001 257.525 418.961 243.373 410.3250000000001L243.948 410.6510000000001L64.623 302.5500000000001C60.369 300.0030000000001 57.453 295.6 56.989 290.4890000000001L56.985 290.428C55.754 277.6040000000001 55.052 262.703 55.052 247.637C55.052 185.236 67.097 125.6489999999999 88.989 71.073L87.858 74.2669999999999C89.654 69.9469999999999 93.185 66.656 97.557 65.2209999999999L97.669 65.1889999999999C99.154 64.6859999999998 100.864 64.3949999999999 102.643 64.3949999999999C105.762 64.3949999999999 108.672 65.2879999999999 111.131 66.8329999999999L111.064 66.7939999999999L167.439 101.7619999999998C195.857 119.6529999999998 230.418 130.2669999999998 267.46 130.2669999999998C277.368 130.2669999999998 287.098 129.5079999999998 296.597 128.0439999999999L295.537 128.1779999999999L476.328 100.7929999999999C484.443 99.6359999999999 493.815 98.9749999999999 503.341 98.9749999999999C531.2429999999999 98.9749999999999 557.8209999999999 104.6439999999999 581.986 114.8929999999999L580.665 114.3949999999999L666.266 148.5739999999999C689.949 158.1569999999998 710.333 170.8509999999999 728.1179999999999 186.4379999999999L727.872 186.2269999999999L868.3679999999999 308.7329999999999L954.661 388.9919999999999C963.319 397.0419999999998 968.719 408.4959999999999 968.719 421.2099999999998C968.719 445.4819999999999 949.042 465.1589999999998 924.77 465.1589999999998C914.617 465.1589999999998 905.268 461.7159999999998 897.827 455.9339999999997L897.926 456.0079999999997L692.7520000000001 298.6579999999997C675.325 285.2689999999997 654.4040000000001 275.5009999999997 631.613 270.8829999999997L630.647 270.7199999999997C626.952 270.0419999999997 623.451 269.5439999999997 619.798 269.0729999999997L587.971 265.3369999999997C587.667 265.3369999999997 587.348 265.3369999999997 587.044 265.2539999999997L454.782 250.0319999999997C452.073 249.7269999999998 448.932 249.5539999999998 445.75 249.5539999999998C443.757 249.5539999999998 441.78 249.6219999999998 439.822 249.7559999999998L440.087 249.7409999999998C408.091 252.3759999999998 381.789 274.0929999999998 372.433 303.3809999999998L372.282 303.9299999999997C371.282 307.0309999999997 370.706 310.5979999999998 370.706 314.2999999999998C370.706 330.3349999999997 381.52 343.8439999999997 396.253 347.9319999999997L396.498 347.9899999999997C432.642 357.9809999999997 508.031 378.7789999999997 556.546 391.9939999999997C572.7800000000001 396.6029999999997 584.471 411.2949999999998 584.471 428.7169999999997C584.471 430.9169999999997 584.285 433.0739999999996 583.927 435.1719999999997L583.9590000000001 434.9469999999997S583.7510000000001 436.3309999999997 583.738 436.4409999999997C580.687 453.8959999999997 565.6460000000001 466.9949999999997 547.546 466.9949999999997C547.543 466.9949999999997 547.5400000000001 466.9949999999997 547.537 466.9949999999997L547.537 466.9949999999997zM678.884 509.952C590.582 510.039 519.021 581.59 518.919 669.88L518.919 669.89C518.919 753.747 661.241 971.79 667.288 981.034C669.939 984.594 674.135 986.874 678.863 986.874S687.788 984.593 690.4110000000001 981.072L690.4380000000001 981.034C696.4850000000001 971.79 838.8070000000001 753.748 838.8070000000001 669.89C838.7050000000002 581.605 767.1670000000001 510.062 678.8940000000001 509.952L678.8830000000002 509.952zM678.884 947.878C633.427 876.143 546.594 727.303 546.594 669.89C547.359 597.42 606.2850000000001 538.967 678.863 538.967S810.3670000000001 597.42 811.1310000000001 669.817L811.1320000000001 669.89C811.1460000000001 727.303 724.327 876.143 678.884 947.892zM678.884 609.211C671.242 609.211 665.046 615.406 665.046 623.049V623.049V726.8330000000001C665.046 734.475 671.2410000000001 740.671 678.884 740.671S692.722 734.4760000000001 692.722 726.8330000000001V726.8330000000001V623.049C692.722 615.407 686.5269999999999 609.211 678.884 609.211V609.211zM730.776 661.117H626.992C619.3499999999999 661.117 613.154 667.312 613.154 674.955S619.349 688.7930000000001 626.992 688.7930000000001V688.7930000000001H730.776C738.418 688.7930000000001 744.6139999999999 682.5980000000001 744.6139999999999 674.955S738.4189999999999 661.117 730.776 661.117V661.117z" />
    <glyph glyph-name="bottle"
      unicode="&#xE00F;"
      horiz-adv-x="1025" d="M813.388 221.405H210.6120000000001C202.9700000000001 221.405 196.7740000000001 227.6 196.7740000000001 235.243S202.9690000000001 249.0809999999999 210.6120000000001 249.0809999999999V249.0809999999999H813.388C821.0300000000001 249.0809999999999 827.226 242.8859999999999 827.226 235.243S821.031 221.405 813.388 221.405V221.405zM733.765 27.676H290.235C238.633 27.731 196.816 69.548 196.76 121.145L196.76 121.15V620.627C196.76 620.684 196.76 620.752 196.76 620.819C196.76 649.9 206.258 676.762 222.32 698.4739999999999L222.069 698.1189999999999L339.096 858.2499999999999C341.639 861.7099999999999 345.6910000000001 863.9319999999999 350.262 863.9369999999999L673.736 863.9369999999999C678.308 863.9319999999999 682.36 861.7099999999999 684.876 858.2879999999999L684.903 858.2499999999999L801.9300000000001 698.1189999999999C817.7420000000001 676.7629999999999 827.24 649.8999999999999 827.24 620.819C827.24 620.751 827.24 620.684 827.24 620.616L827.24 620.626V121.0799999999999C827.146 69.507 785.344 27.7299999999999 733.771 27.675L733.766 27.675zM357.293 836.331L244.418 681.8589999999999C231.935 665.009 224.436 643.8109999999999 224.436 620.861C224.436 620.778 224.436 620.6959999999999 224.436 620.613L224.436 620.626V121.0799999999999C224.515 84.786 253.935 55.3899999999999 290.231 55.3499999999999L733.765 55.3499999999999C770.0889999999999 55.3889999999999 799.525 84.8249999999999 799.564 121.1449999999999L799.564 121.1489999999999V620.6259999999999C799.564 620.6959999999999 799.564 620.7779999999998 799.564 620.8609999999999C799.564 643.81 792.0649999999999 665.0079999999998 779.384 682.1379999999999L779.582 681.858L666.707 836.3299999999999zM716.606 836.331H307.393C290.959 836.3389999999999 277.638 849.651 277.614 866.0799999999999L277.614 866.082V966.559C277.638 982.993 290.958 996.308 307.392 996.324L716.606 996.324C733.0409999999999 996.308 746.361 982.993 746.385 966.561L746.385 966.559V866.082C746.361 849.651 733.04 836.3389999999999 716.607 836.331L716.606 836.331zM307.394 968.649C307.394 968.649 307.394 968.649 307.394 968.649C306.237 968.649 305.299 967.715 305.291 966.56L305.291 966.559V866.082C305.307 864.932 306.242 864.006 307.394 864.006C307.394 864.006 307.394 864.006 307.394 864.006L716.607 864.006C716.607 864.006 716.607 864.006 716.607 864.006C717.759 864.006 718.6949999999999 864.932 718.7099999999999 866.08L718.7099999999999 866.081V966.558C718.7019999999999 967.714 717.7629999999999 968.648 716.607 968.648C716.607 968.648 716.607 968.648 716.607 968.648L716.607 968.648zM813.388 539.6759999999999H210.6120000000001C202.9700000000001 539.6759999999999 196.7740000000001 545.871 196.7740000000001 553.514S202.9690000000001 567.3520000000001 210.6120000000001 567.3520000000001V567.3520000000001H813.388C821.0300000000001 567.3520000000001 827.226 561.157 827.226 553.514S821.031 539.6759999999999 813.388 539.6759999999999V539.6759999999999zM512 312.209C504.358 312.209 498.162 318.404 498.162 326.0469999999999V326.0469999999999V476.5469999999999C498.162 484.189 504.357 490.3849999999999 512 490.3849999999999S525.838 484.1899999999998 525.838 476.5469999999999V476.5469999999999V326.0469999999999C525.838 318.4049999999999 519.6429999999999 312.209 511.9999999999999 312.209V312.209zM587.25 387.459H436.75C429.108 387.459 422.912 393.654 422.912 401.2969999999999S429.107 415.1349999999999 436.75 415.1349999999999V415.1349999999999H587.25C594.892 415.1349999999999 601.088 408.9399999999999 601.088 401.2969999999999S594.8929999999999 387.459 587.25 387.459V387.459z" />
    <glyph glyph-name="box"
      unicode="&#xE010;"
      horiz-adv-x="1025" d="M1013.935 419.2200000000001C1000.07 443.8350000000001 973.888 459.124 945.605 459.124C932.2459999999998 459.124 918.98 455.6320000000001 907.249 449.0260000000001L678.9379999999999 320.4500000000001C675.9569999999999 318.773 673.8069999999999 315.9350000000001 672.9899999999999 312.6130000000001C669.0079999999999 296.3580000000001 659.6339999999999 273.663 637.6119999999999 257.8590000000001C613.2369999999999 240.3670000000001 580.2619999999998 236.7230000000001 540.0829999999999 247.0270000000001C539.8409999999999 247.087 539.6019999999999 247.1560000000001 539.3899999999999 247.2220000000001L407.6839999999999 288.1160000000001C399.7199999999999 290.5880000000001 395.2539999999999 299.0800000000002 397.7259999999999 307.0410000000001C399.7059999999999 313.4100000000001 405.5079999999998 317.6890000000001 412.1659999999999 317.6890000000001C413.6779999999999 317.6890000000001 415.1939999999999 317.4580000000001 416.6589999999998 317.0040000000002L547.6799999999998 276.3210000000002C547.8889999999998 276.2580000000002 548.1029999999998 276.1970000000001 548.3179999999999 276.1420000000002C579.2159999999999 268.3430000000002 603.3469999999999 270.5130000000002 619.9699999999999 282.4340000000002C640.9709999999999 297.5040000000003 644.67 323.9940000000002 645.107 327.8850000000002C645.1229999999999 328.0090000000003 645.137 328.1320000000002 645.145 328.2590000000003C645.153 328.3220000000003 645.156 328.3580000000003 645.159 328.3660000000002C645.162 328.4070000000003 645.164 328.4480000000002 645.167 328.4870000000002C645.1700000000001 328.5140000000003 645.1700000000001 328.5390000000002 645.172 328.5670000000003C647.672 361.2310000000002 626.5930000000001 391.3920000000003 595.013 400.3100000000002L594.433 400.4860000000002C593.471 400.7990000000002 496.546 432.4570000000002 434.791 450.0780000000002C427.93 452.0330000000002 409.024 456.5840000000002 381.681 456.5840000000002C343.44 456.5840000000002 286.393 447.5230000000002 231.675 404.2660000000002L4.591 220.5780000000002C-0.604 216.3790000000003 -1.525 208.8140000000002 2.507 203.4870000000002L125.462 41.0760000000003C127.456 38.4470000000002 130.415 36.7200000000003 133.684 36.2800000000002C134.231 36.2060000000002 134.778 36.1700000000002 135.328 36.1700000000002C138.042 36.1700000000002 140.701 37.0640000000002 142.877 38.7410000000002L301.251 160.6870000000003C304.809 163.4230000000002 309.581 164.4540000000003 313.953 163.4230000000002L569.752 102.9740000000003C588.721 98.4920000000003 609.222 101.3850000000002 626.189 110.9490000000003L984.121 312.5300000000003C1021.751 333.7290000000003 1035.124 381.5840000000003 1013.933 419.2170000000004zM871.678 987.825H404.189C389.004 987.825 376.69 975.514 376.69 960.326V835.193C376.69 820.005 389.004 807.694 404.189 807.694H414.4600000000001V541.9870000000001C414.4600000000001 526.799 426.771 514.488 441.9590000000001 514.488H833.897C849.085 514.488 861.3960000000001 526.799 861.3960000000001 541.9870000000001V807.697H871.6750000000001C886.86 807.697 899.1740000000001 820.008 899.1740000000001 835.196V960.326C899.1770000000001 975.514 886.863 987.825 871.6770000000001 987.825zM695.778 742.36H580.0830000000001C567.9530000000001 742.36 558.0830000000001 752.23 558.0830000000001 764.36S567.9530000000001 786.36 580.0830000000001 786.36H695.778C707.908 786.36 717.778 776.49 717.778 764.36S707.908 742.36 695.778 742.36zM844.179 862.694H431.688V932.826H844.179V862.694z" />
    <glyph glyph-name="btn-left"
      unicode="&#xE011;"
      horiz-adv-x="1025" d="M729.017 10.189L245.0370000000001 494.169C234.8480000000001 504.3579999999999 234.8480000000001 524.736 245.0370000000001 534.925L729.017 1018.905C739.206 1029.094 759.5840000000001 1029.094 769.773 1018.905L785.057 1003.621C795.246 993.432 795.246 973.054 785.057 962.865L331.644 514.547L779.962 66.229C790.151 56.0400000000001 790.151 35.662 779.962 25.4730000000001L764.678 10.1890000000001C754.489 1e-13 739.205 1e-13 729.016 10.1890000000001z" />
    <glyph glyph-name="btn-right"
      unicode="&#xE012;"
      horiz-adv-x="1025" d="M295.983 1013.811L779.963 529.8309999999999C790.1519999999999 519.6419999999999 790.1519999999999 499.264 779.963 489.0749999999999L295.983 5.0949999999999C285.794 -5.0940000000001 265.416 -5.0940000000001 255.227 5.0949999999999L239.943 20.3789999999999C229.754 30.5679999999999 229.754 50.9459999999999 239.943 61.1349999999999L693.356 514.5479999999999L245.038 962.8659999999998C234.849 973.0549999999998 234.849 993.4329999999998 245.038 1003.6219999999998L260.322 1018.9059999999998C270.511 1029.0949999999998 285.795 1029.0949999999998 295.984 1013.811z" />
    <glyph glyph-name="bubbles"
      unicode="&#xE013;"
      horiz-adv-x="1025" d="M998.5 102V101.9980000000001C981.167 101.9980000000001 964 104.4150000000001 947 109.2480000000001S914.083 119.7480000000001 899.25 126.2480000000001S871.167 139.4980000000001 859.5 146.4980000000001S838.667 159.331 832 163.9980000000001C817.667 160.331 803 157.6650000000001 788 155.9980000000001S757.833 153.4980000000001 742.5 153.4980000000001C724.167 153.4980000000001 706.083 154.7480000000001 688.25 157.2480000000001S653.25 163.4150000000001 636.75 168.2480000000001S604.417 178.9980000000001 589.25 185.9980000000001S559.833 201.1640000000001 546.5 210.4980000000001C532.833 220.1640000000001 520.667 230.6640000000001 510 241.9980000000001S490.334 265.2480000000001 483 277.7480000000001S470.166 303.2480000000001 466.5 316.7480000000001S461 343.9980000000001 461 357.9980000000001C461 372.332 462.833 386.2480000000001 466.5 399.7480000000001S475.666 426.2480000000001 483 438.7480000000001S499.334 463.1640000000001 510 474.498S532.833 496.332 546.5 505.998C559.833 514.998 574.083 523.0820000000001 589.25 530.248S620.25 543.414 636.75 548.248S670.417 556.748 688.25 559.248S724.167 562.998 742.5 562.998S778.917 561.748 796.75 559.248S831.75 553.0820000000001 848.25 548.248S880.583 537.414 895.75 530.248S925 514.998 938 505.998C952 496.332 964.333 485.832 975 474.498S994.583 451.248 1001.75 438.7480000000001S1014.417 413.2480000000001 1018.25 399.7480000000001S1024 372.332 1024 357.9980000000001C1024 333.332 1018.25 309.6650000000001 1006.75 286.9980000000001S978.667 243.6650000000001 957 224.9980000000001C959.333 219.331 964.583 209.9980000000001 972.75 196.9980000000001S995.333 167.1650000000001 1016 146.4980000000001C1018.333 144.1650000000001 1020.25 141.4150000000001 1021.75 138.2480000000001S1024 131.6650000000001 1024 127.9980000000001C1024 120.6650000000001 1021.5 114.4980000000001 1016.5 109.4980000000001S1005.5 101.9980000000001 998.5 101.9980000000001V101.9980000000001zM837.5 217.4980000000001C840.167 217.4980000000001 842.832 216.9980000000001 845.499 215.9980000000001S850.499 213.6650000000001 852.499 211.9980000000001C852.832 211.9980000000001 860.499 206.9980000000001 875.499 196.9980000000001S908.499 177.6650000000001 929.499 168.9980000000001C915.832 189.332 907.999 205.4980000000001 905.999 217.4980000000001S903.666 237.832 904.999 242.4980000000001C905.666 245.4980000000001 906.832 248.1650000000001 908.499 250.4980000000001S912.166 254.831 914.499 256.4980000000001C933.166 270.832 947.582 286.7480000000001 957.749 304.2480000000001S972.999 339.6650000000001 972.999 357.9980000000001C972.999 377.6650000000001 967.416 396.6650000000001 956.249 414.9980000000001S929.166 449.6650000000001 908.499 463.999C897.499 471.6650000000001 885.666 478.499 872.999 484.499S846.916 495.499 832.749 499.499S803.916 506.582 788.749 508.749S758.166 511.999 742.499 511.999C726.499 511.999 710.916 510.9160000000001 695.749 508.749S665.999 503.499 651.999 499.499S624.582 490.499 611.749 484.499S586.999 471.6650000000001 575.999 463.999C555.332 449.6650000000001 539.499 433.332 528.499 414.9980000000001S511.999 377.6650000000001 511.999 357.9980000000001S517.499 319.4150000000001 528.499 301.249S555.332 266.832 575.999 252.499C586.999 244.832 598.916 237.999 611.749 231.999S637.999 220.999 651.999 216.999S680.582 209.9150000000001 695.749 207.749S726.499 204.499 742.499 204.499C757.499 204.499 772.416 205.499 787.249 207.499S816.499 212.499 830.499 216.499C831.499 216.832 832.582 217.082 833.749 217.249S836.166 217.499 837.499 217.499V217.499zM25.5 50.9980000000001C19.834 50.9980000000001 14.665 52.7470000000001 9.998 56.2470000000001S2.331 64.33 0.998 69.9970000000001C-0.669 75.33 -0.419 80.6640000000001 1.748 85.9970000000001S7.498 95.4970000000001 12.498 98.4970000000001C34.165 111.4970000000001 52.748 125.6640000000001 68.248 140.9970000000001S96.914 171.4140000000001 107.748 186.2470000000001S127.165 215.081 133.499 228.2470000000001S144.499 252.4970000000001 147.499 261.4970000000001C124.165 279.4970000000001 103.332 299.0810000000002 84.998 320.2470000000001S51.164 363.7470000000001 38.498 387.2470000000001S16.248 435.163 9.748 460.4970000000001S-0.002 511.4970000000001 -0.002 537.4970000000001C-0.002 563.83 3.331 589.6640000000001 9.998 614.9970000000001S26.498 664.9970000000001 39.498 688.9970000000001C45.498 700.664 52.332 711.9140000000001 59.998 722.7470000000001S75.831 744.08 84.497 754.2470000000001S102.58 774.2470000000001 112.746 783.7470000000001S133.662 802.33 144.996 810.9970000000001C167.662 828.6640000000001 192.246 844.4140000000001 218.746 858.2470000000001S272.912 883.6640000000001 301.746 892.9970000000001S360.496 909.4140000000002 391.496 914.247S454.162 921.497 486.496 921.497C515.496 921.497 544.246 919.4140000000002 572.746 915.247S628.913 905.08 655.746 897.2470000000001S708.496 879.7470000000001 733.496 868.2470000000001S781.996 843.4970000000001 803.996 828.4970000000001S846.163 797.08 864.496 779.2470000000001S898.913 742.4970000000001 912.746 722.4970000000001S938.163 681.6640000000001 947.496 659.9970000000001S963.496 615.9970000000001 967.496 592.9970000000001C968.829 586.3300000000002 967.496 580.0800000000002 963.496 574.2470000000001S953.996 564.8300000000002 946.996 563.4970000000001S933.663 563.4970000000001 927.996 567.4970000000001S918.829 576.9970000000001 917.496 583.9970000000001C913.829 603.33 907.996 622.33 899.996 640.9970000000001S881.996 677.4970000000001 869.996 694.4970000000001S843.996 727.7470000000001 827.996 743.2470000000001S794.329 772.9970000000001 774.996 785.9970000000001C755.329 799.6640000000001 734.163 811.7470000000001 711.496 822.2470000000001S665.246 841.4970000000001 640.746 848.4970000000001S591.079 860.83 565.246 864.4970000000001S513.163 869.9970000000001 486.496 869.9970000000001C426.496 869.9970000000001 370.08 861.33 317.246 843.9970000000001S218.246 802.9140000000001 178.746 772.7470000000001S108.08 707.2470000000001 85.246 666.7470000000001S50.996 583.1640000000001 50.996 537.4970000000001C50.996 514.163 54.163 491.2470000000001 60.496 468.7470000000001S75.996 424.4970000000001 87.996 403.4970000000001S114.746 362.5810000000002 132.246 343.7470000000001S169.83 307.663 192.496 291.9970000000001C196.829 288.9970000000001 199.913 284.9140000000001 201.746 279.7470000000001S203.829 269.4970000000001 202.496 264.4970000000001C200.829 258.8300000000001 198.246 250.9970000000001 194.746 240.9970000000001S186.33 219.6630000000001 179.996 206.9970000000001S165.746 180.6640000000001 156.246 165.9970000000001S135.162 136.4970000000001 121.496 121.4970000000001C138.162 127.4970000000001 154.996 134.3300000000001 171.996 141.9970000000001S205.746 157.9140000000001 222.246 166.7470000000001S254.662 184.7470000000001 269.996 194.2470000000001L312.996 221.9970000000001C315.996 224.3300000000001 319.412 225.7470000000001 323.246 226.2470000000001S330.83 226.4970000000001 334.496 225.4970000000001C358.83 218.4970000000001 383.663 213.2470000000001 408.996 209.7470000000001S460.163 204.4970000000001 486.496 204.4970000000001C493.496 204.4970000000001 499.496 201.9970000000001 504.496 196.9970000000001S511.996 185.9970000000001 511.996 178.9970000000001S509.496 165.9970000000001 504.496 160.9970000000001S493.496 153.4970000000001 486.496 153.4970000000001C459.83 153.4970000000001 433.58 155.1640000000001 407.746 158.4970000000001S356.662 166.6640000000001 331.996 172.9970000000001C320.996 165.6640000000001 305.662 156.0800000000001 285.996 144.2470000000001S244.33 120.3300000000001 219.996 107.9970000000001C200.996 98.6630000000001 182.662 90.4130000000001 164.996 83.2470000000001S130.33 70.08 113.996 65.2470000000001S82.162 56.83 67.496 54.4970000000001S38.83 50.9970000000001 25.496 50.9970000000001V50.9970000000001z" />
    <glyph glyph-name="bullet"
      unicode="&#xE014;"
      horiz-adv-x="1025" d="M1025 517.284C1025 231.9749999999999 792.5260000000001 10.068 517.784 10.068S0 231.975 0 517.284S232.474 1024.5 507.216 1024.5S1025 792.0260000000001 1025 517.284zM95.103 517.284C95.103 284.81 274.742 105.1710000000001 507.216 105.1710000000001C739.69 94.604 929.896 284.8100000000001 929.896 517.2840000000001S750.257 929.397 517.7829999999999 929.397C285.3089999999999 929.397 95.1029999999999 739.191 95.1029999999999 517.2840000000001zM676.289 517.284C676.289 422.1810000000001 602.3199999999999 348.212 507.217 348.212S348.712 422.1810000000001 348.712 517.284S422.681 675.789 507.217 675.789S676.289 601.8199999999999 676.289 517.284z" />
    <glyph glyph-name="calendar-31"
      unicode="&#xE015;"
      horiz-adv-x="1025" d="M947 921.5H819V947C819 954 816.5 960 811.5 965S800.5 972.5 793.5 972.5S780.5 970 775.5 965S768 954 768 947V921.5H256V947C256 954 253.5 960 248.5 965S237.5 972.5 230.5 972.5S217.5 970 212.5 965S205 954 205 947V921.5H77C55.666 921.5 37.5 914 22.5 899S0 865.833 0 844.5V128C0 106.667 7.5 88.5 22.5 73.5S55.666 51 77 51H947C968.333 51 986.5 58.5 1001.5 73.5S1024 106.667 1024 128V844.5C1024 865.833 1016.5 884 1001.5 899S968.333 921.5 947 921.5V921.5zM77 870H205V793.5C205 786.5 207.5 780.5 212.5 775.5S223.5 768 230.5 768S243.5 770.5 248.5 775.5S256 786.5 256 793.5V870H768V793.5C768 786.5 770.5 780.5 775.5 775.5S786.5 768 793.5 768S806.5 770.5 811.5 775.5S819 786.5 819 793.5V870H947C954.333 870 960.5 867.5 965.5 862.5S973 851.5 973 844.5V716.5H51V844.5C51 851.5 53.5 857.5 58.5 862.5S69.666 870 77 870V870zM947 102H77C69.666 102 63.5 104.5 58.5 109.5S51 120.667 51 128V665.5H973V128C973 120.667 970.5 114.5 965.5 109.5S954.333 102 947 102V102zM486.5 204.5H333C325.666 204.5 319.5 207 314.5 212S307 223 307 230C307 237.333 309.5 243.5 314.5 248.5S325.666 256 333 256H461V358H384C377 358 371 360.5 366 365.5S358.5 376.6670000000001 358.5 384C358.5 391 361 397 366 402S377 409.5 384 409.5H461V512H333C325.666 512 319.5 514.5 314.5 519.5S307 530.5 307 537.5S309.5 550.5 314.5 555.5S325.666 563 333 563H486.5C493.5 563 499.5 560.5 504.5 555.5S512 544.5 512 537.5V230C512 223 509.5 217 504.5 212S493.5 204.5 486.5 204.5V204.5zM691 204.5C684 204.5 678 207 673 212S665.5 223 665.5 230V537.5C665.5 544.5 668 550.5 673 555.5S684 563 691 563C698.333 563 704.5 560.5 709.5 555.5S717 544.5 717 537.5V230C717 223 714.5 217 709.5 212S698.333 204.5 691 204.5V204.5z" />
    <glyph glyph-name="cart-empty"
      unicode="&#xE016;"
      horiz-adv-x="1025" d="M409.5 0C395.5 0 382.25 2.667 369.75 8S346.416 20.583 337.25 29.75S320.75 49.75 315.25 62.25S307 88 307 102C307 116.333 309.75 129.667 315.25 142S328.084 165.167 337.25 174.5S357.25 191.167 369.75 196.5S395.5 204.5 409.5 204.5C423.834 204.5 437.1670000000001 201.833 449.5 196.5S472.667 183.833 482 174.5S498.667 154.333 504 142S512 116.333 512 102C512 88 509.333 74.75 504 62.25S491.333 38.917 482 29.75S461.833 13.333 449.5 8S423.833 0 409.5 0V0zM409.5 153.5C395.5 153.5 383.5 148.5 373.5 138.5S358.5 116.333 358.5 102C358.5 88 363.5 76 373.5 66S395.5 51 409.5 51C423.834 51 436 56 446 66S461 88 461 102C461 116.333 456 128.5 446 138.5S423.834 153.5 409.5 153.5V153.5zM768 0C754 0 740.75 2.667 728.25 8S704.833 20.583 695.5 29.75S678.833 49.75 673.5 62.25S665.5 88 665.5 102C665.5 116.333 668.167 129.667 673.5 142S686.167 165.167 695.5 174.5S715.75 191.167 728.25 196.5S754 204.5 768 204.5S795.25 201.833 807.75 196.5S831.167 183.833 840.5 174.5S857.167 154.333 862.5 142S870.5 116.333 870.5 102C870.5 88 867.833 74.75 862.5 62.25S849.833 38.917 840.5 29.75S820.25 13.333 807.75 8S782 0 768 0V0zM768 153.5C754 153.5 742 148.5 732 138.5S717 116.333 717 102C717 88 722 76 732 66S754 51 768 51S794 56 804 66S819 88 819 102C819 116.333 814 128.5 804 138.5S782 153.5 768 153.5V153.5zM901 818.5C894 819.833 887.585 818.583 881.751 814.75S872.334 805.5 871.001 798.5L829.501 592.5C828.168 584.5 823.584 577 815.751 570S799.834 559.1659999999999 791.501 558.5L269.001 513.5L213.001 849.5C209.668 869.5 199.751 886.5 183.251 900.5S148.335 921.5 128.001 921.5H77.001C69.667 921.5 63.501 919 58.501 914S51.001 903 51.001 896C51.001 888.667 53.501 882.5 58.501 877.5S69.667 870 77.001 870H128.001C136.001 870 143.417 867.083 150.251 861.25S161.168 848.667 162.501 841L248.001 327.5C251.334 307.5 261.168 290.5840000000001 277.501 276.75S312.335 256 333.001 256H845.001C852.001 256 858.001 258.5 863.001 263.5S870.501 274.5 870.501 281.5S868.001 294.5 863.001 299.5S852.001 307 845.001 307H333.001C325.001 307 317.585 309.9170000000001 310.751 315.75S299.834 328.334 298.501 336L277.501 463L796.001 507.5C815.668 509.167 833.584 517.25 849.751 531.75S876.001 563.167 880.001 582.5L921.001 788.5C922.334 795.5 921.084 801.917 917.251 807.75S908.001 817.167 901.001 818.5V818.5z" />
    <glyph glyph-name="cart-full"
      unicode="&#xE017;"
      horiz-adv-x="1025" d="M409.5 0C395.5 0 382.25 2.667 369.75 8S346.416 20.583 337.25 29.75S320.75 49.75 315.25 62.25S307 88 307 102C307 116.333 309.75 129.667 315.25 142S328.084 165.167 337.25 174.5S357.25 191.167 369.75 196.5S395.5 204.5 409.5 204.5C423.834 204.5 437.1670000000001 201.833 449.5 196.5S472.667 183.833 482 174.5S498.667 154.333 504 142S512 116.333 512 102C512 88 509.333 74.75 504 62.25S491.333 38.917 482 29.75S461.833 13.333 449.5 8S423.833 0 409.5 0V0zM409.5 153.5C395.5 153.5 383.5 148.5 373.5 138.5S358.5 116.333 358.5 102C358.5 88 363.5 76 373.5 66S395.5 51 409.5 51C423.834 51 436 56 446 66S461 88 461 102C461 116.333 456 128.5 446 138.5S423.834 153.5 409.5 153.5V153.5zM768 0C754 0 740.75 2.667 728.25 8S704.833 20.583 695.5 29.75S678.833 49.75 673.5 62.25S665.5 88 665.5 102C665.5 116.333 668.167 129.667 673.5 142S686.167 165.167 695.5 174.5S715.75 191.167 728.25 196.5S754 204.5 768 204.5S795.25 201.833 807.75 196.5S831.167 183.833 840.5 174.5S857.167 154.333 862.5 142S870.5 116.333 870.5 102C870.5 88 867.833 74.75 862.5 62.25S849.833 38.917 840.5 29.75S820.25 13.333 807.75 8S782 0 768 0V0zM768 153.5C754 153.5 742 148.5 732 138.5S717 116.333 717 102C717 88 722 76 732 66S754 51 768 51S794 56 804 66S819 88 819 102C819 116.333 814 128.5 804 138.5S782 153.5 768 153.5V153.5zM898 795C891.667 802.667 883.833 808.5840000000001 874.5 812.75S855.333 819 845 819H830L683.5 965C678.5 970 672.5 972.5 665.5 972.5S652.5 970 647.5 965L596.5 914C591.5 909 589 902.917 589 895.75S591.5 882.5 596.5 877.5S607.5 870 614.5 870S627.5 872.5 632.5 877.5L665.5 911L757.5 819H625L453.5 990.5C448.5 995.5 442.416 998 435.25 998S422 995.5 417 990.5L245.5 819H218L213 849.5C209.667 869.5 199.75 886.5 183.25 900.5S148.334 921.5 128 921.5H77C69.666 921.5 63.5 919 58.5 914S51 903 51 896C51 888.667 53.5 882.5 58.5 877.5S69.666 870 77 870H128C136 870 143.416 867.083 150.25 861.25S161.167 848.667 162.5 841L248 327.5C251.333 307.5 261.167 290.5840000000001 277.5 276.75S312.334 256 333 256H845C852 256 858 258.5 863 263.5S870.5 274.5 870.5 281.5S868 294.5 863 299.5S852 307 845 307H333C325 307 317.584 309.9170000000001 310.75 315.75S299.8330000000001 328.334 298.5 336L286 412L796 456.5C816 458.167 833.917 466.333 849.75 481S875.167 512.833 878.5 532.5L913 738.5C914.667 748.8330000000001 914.167 758.917 911.5 768.75S904.333 787.333 898 795V795zM435 936.5L552.5 819H318L435 936.5zM862.5 747L828.001 541C826.668 533 822.334 525.5840000000001 815.001 518.75S799.834 508.167 791.501 507.5L277.501 462.5L226.501 768H845.001C848.001 768 850.668 767.5 853.001 766.5S857.334 764 859.001 762S861.751 757.75 862.251 755.25S862.834 750 862.501 747V747z" />
    <glyph glyph-name="cart-plus"
      unicode="&#xE018;"
      horiz-adv-x="1025" d="M901 818.5C894 819.833 887.585 818.583 881.751 814.75S872.334 805.5 871.001 798.5L829.501 592.5C828.168 584.5 823.584 577 815.751 570S799.834 559.1659999999999 791.501 558.5L269.001 513.5L213.001 849.5C209.668 869.5 199.751 886.5 183.251 900.5S148.335 921.5 128.001 921.5H77.001C69.667 921.5 63.501 919 58.501 914S51.001 903 51.001 896C51.001 888.667 53.501 882.5 58.501 877.5S69.667 870 77.001 870H128.001C136.001 870 143.417 867.083 150.251 861.25S161.168 848.667 162.501 841L248.001 327.5C251.334 307.5 261.168 290.5840000000001 277.501 276.75S312.335 256 333.001 256H845.001C852.001 256 858.001 258.5 863.001 263.5S870.501 274.5 870.501 281.5S868.001 294.5 863.001 299.5S852.001 307 845.001 307H333.001C325.001 307 317.585 309.9170000000001 310.751 315.75S299.834 328.334 298.501 336L277.501 463L796.001 507.5C815.668 509.167 833.584 517.25 849.751 531.75S876.001 563.167 880.001 582.5L921.001 788.5C922.334 795.5 921.084 801.917 917.251 807.75S908.001 817.167 901.001 818.5V818.5zM409.502 -0.001C395.502 -0.001 382.252 2.6660000000001 369.752 7.999S346.418 20.582 337.252 29.749S320.752 49.749 315.252 62.249S307.002 87.999 307.002 101.999C307.002 116.332 309.752 129.6660000000001 315.252 141.999S328.086 165.1660000000001 337.252 174.499S357.252 191.1660000000001 369.752 196.499S395.502 204.499 409.502 204.499C423.836 204.499 437.169 201.832 449.502 196.499S472.669 183.832 482.002 174.499S498.669 154.332 504.002 141.999S512.002 116.332 512.002 101.999C512.002 87.999 509.335 74.749 504.002 62.249S491.335 38.9150000000001 482.002 29.749S461.8349999999999 13.332 449.502 7.999S423.8349999999999 -0.001 409.502 -0.001V-0.001zM409.502 153.5C395.502 153.5 383.502 148.5 373.502 138.5S358.502 116.333 358.502 102C358.502 88 363.502 76 373.502 66S395.502 51 409.502 51C423.836 51 436.002 56 446.002 66S461.002 88 461.002 102C461.002 116.333 456.002 128.5 446.002 138.5S423.836 153.5 409.502 153.5V153.5zM768 -0.001C754 -0.001 740.75 2.6660000000001 728.25 7.999S704.833 20.582 695.5 29.749S678.833 49.749 673.5 62.249S665.5 87.999 665.5 101.999C665.5 116.332 668.167 129.6660000000001 673.5 141.999S686.167 165.1660000000001 695.5 174.499S715.75 191.1660000000001 728.25 196.499S754 204.499 768 204.499S795.25 201.832 807.75 196.499S831.167 183.832 840.5 174.499S857.167 154.332 862.5 141.999S870.5 116.332 870.5 101.999C870.5 87.999 867.833 74.749 862.5 62.249S849.833 38.9150000000001 840.5 29.749S820.25 13.332 807.75 7.999S782 -0.001 768 -0.001V-0.001zM768 153.5C754 153.5 742 148.5 732 138.5S717 116.333 717 102C717 88 722 76 732 66S754 51 768 51S794 56 804 66S819 88 819 102C819 116.333 814 128.5 804 138.5S782 153.5 768 153.5V153.5zM691 819H563V947C563 954 560.5 960 555.5 965S544.5 972.5 537.5 972.5S524.5 970 519.5 965S512 954 512 947V819H384C377 819 371 816.5 366 811.5S358.5 800.5 358.5 793.5S361 780.5 366 775.5S377 768 384 768H512V640C512 632.6669999999999 514.5 626.5 519.5 621.5S530.5 614 537.5 614S550.5 616.5 555.5 621.5S563 632.6669999999999 563 640V768H691C698.333 768 704.5 770.5 709.5 775.5S717 786.5 717 793.5S714.5 806.5 709.5 811.5S698.333 819 691 819V819z" />
    <glyph glyph-name="cart"
      unicode="&#xE019;"
      horiz-adv-x="1025" d="M409.5 0C395.5 0 382.25 2.667 369.75 8S346.416 20.583 337.25 29.75S320.75 49.75 315.25 62.25S307 88 307 102C307 116.333 309.75 129.667 315.25 142S328.084 165.167 337.25 174.5S357.25 191.167 369.75 196.5S395.5 204.5 409.5 204.5C423.834 204.5 437.1670000000001 201.833 449.5 196.5S472.667 183.833 482 174.5S498.667 154.333 504 142S512 116.333 512 102C512 88 509.333 74.75 504 62.25S491.333 38.917 482 29.75S461.833 13.333 449.5 8S423.833 0 409.5 0V0zM409.5 153.5C395.5 153.5 383.5 148.5 373.5 138.5S358.5 116.333 358.5 102C358.5 88 363.5 76 373.5 66S395.5 51 409.5 51C423.834 51 436 56 446 66S461 88 461 102C461 116.333 456 128.5 446 138.5S423.834 153.5 409.5 153.5V153.5zM768 0C754 0 740.75 2.667 728.25 8S704.833 20.583 695.5 29.75S678.833 49.75 673.5 62.25S665.5 88 665.5 102C665.5 116.333 668.167 129.667 673.5 142S686.167 165.167 695.5 174.5S715.75 191.167 728.25 196.5S754 204.5 768 204.5S795.25 201.833 807.75 196.5S831.167 183.833 840.5 174.5S857.167 154.333 862.5 142S870.5 116.333 870.5 102C870.5 88 867.833 74.75 862.5 62.25S849.833 38.917 840.5 29.75S820.25 13.333 807.75 8S782 0 768 0V0zM768 153.5C754 153.5 742 148.5 732 138.5S717 116.333 717 102C717 88 722 76 732 66S754 51 768 51S794 56 804 66S819 88 819 102C819 116.333 814 128.5 804 138.5S782 153.5 768 153.5V153.5zM898 795C891.667 802.667 883.833 808.5840000000001 874.5 812.75S855.333 819 845 819H218L213 849.5C209.667 869.5 199.75 886.5 183.25 900.5S148.334 921.5 128 921.5H77C69.666 921.5 63.5 919 58.5 914S51 903 51 896C51 888.667 53.5 882.5 58.5 877.5S69.666 870 77 870H128C136 870 143.416 867.083 150.25 861.25S161.167 848.667 162.5 841L248 327.5C251.333 307.5 261.167 290.5840000000001 277.5 276.75S312.334 256 333 256H845C852 256 858 258.5 863 263.5S870.5 274.5 870.5 281.5S868 294.5 863 299.5S852 307 845 307H333C325 307 317.584 309.9170000000001 310.75 315.75S299.8330000000001 328.334 298.5 336L286 412L796 456.5C816 458.167 833.917 466.333 849.75 481S875.167 512.833 878.5 532.5L913 738.5C914.667 748.8330000000001 914.167 758.917 911.5 768.75S904.333 787.333 898 795V795zM862.5 747L828.001 541C826.668 533 822.334 525.5840000000001 815.001 518.75S799.834 508.167 791.501 507.5L277.501 462.5L226.501 768H845.001C848.001 768 850.668 767.5 853.001 766.5S857.334 764 859.001 762S861.751 757.75 862.251 755.25S862.834 750 862.501 747V747z" />
    <glyph glyph-name="chart-bar"
      unicode="&#xE01A;"
      horiz-adv-x="1152" d="M848 320H880C888.8 320 896 327.2000000000001 896 336V816C896 824.8 888.8 832 880 832H848C839.2 832 832 824.8 832 816V336C832 327.2000000000001 839.2 320 848 320zM656 320H688C696.8 320 704 327.2000000000001 704 336V624C704 632.8 696.8 640 688 640H656C647.2 640 640 632.8 640 624V336C640 327.2000000000001 647.2 320 656 320zM272 320H304C312.8 320 320 327.2000000000001 320 336V496C320 504.8 312.8 512 304 512H272C263.2 512 256 504.8 256 496V336C256 327.2000000000001 263.2 320 272 320zM464 320H496C504.8 320 512 327.2000000000001 512 336V752C512 760.8 504.8 768 496 768H464C455.2 768 448 760.8 448 752V336C448 327.2000000000001 455.2 320 464 320zM1008 192H64V880C64 888.84 56.84 896 48 896H16C7.16 896 0 888.84 0 880V160C0 142.3200000000001 14.32 128 32 128H1008C1016.84 128 1024 135.16 1024 144V176C1024 184.84 1016.84 192 1008 192z" />
    <glyph glyph-name="check-circle"
      unicode="&#xE01B;"
      horiz-adv-x="1025" d="M1008 512C1008 238.0660000000001 785.934 16 512 16S16 238.0660000000001 16 512S238.066 1008 512 1008S1008 785.934 1008 512zM454.628 249.372L822.6279999999999 617.372C835.1239999999999 629.8679999999999 835.1239999999999 650.1299999999999 822.6279999999999 662.626L777.3739999999999 707.88C764.8779999999999 720.3779999999999 744.6159999999999 720.3779999999999 732.1179999999999 707.88L432 407.764L291.882 547.8820000000001C279.386 560.3779999999999 259.124 560.3779999999999 246.626 547.8820000000001L201.372 502.628C188.876 490.1320000000001 188.876 469.87 201.372 457.374L409.372 249.374C421.87 236.876 442.13 236.876 454.6279999999999 249.3720000000001z" />
    <glyph glyph-name="check"
      unicode="&#xE01C;"
      horiz-adv-x="1025" d="M281.5 128C278.167 128 274.916 128.583 271.75 129.75S265.834 132.833 263.5 135.5L7.5 391.5C2.5 396.5 0 402.5 0 409.5S2.5 422.5 7.5 427.5S18.5 435 25.5 435S38.5 432.5 43.5 427.5L281.5 189.5L980.5 888.5C985.5 893.5 991.5 896 998.5 896S1011.5 893.5 1016.5 888.5S1024 877.417 1024 870.25S1021.5 857 1016.5 852L299.5 135.5C297.167 132.833 294.416 130.917 291.25 129.75S284.834 128 281.5 128V128z" />
    <glyph glyph-name="chevron-down"
      unicode="&#xE01D;"
      horiz-adv-x="1025" d="M0 716.5C0 719.8330000000001 0.583 723.0830000000001 1.75 726.25S4.833 732.1669999999999 7.5 734.5C12.5 739.5 18.5 742 25.5 742S38.5 739.5 43.5 734.5L486.5 292L929 734.5C934 739.5 940.083 742 947.25 742S960.5 739.5 965.5 734.5S973 723.5 973 716.5S970.5 703.5 965.5 698.5L504.5 237.5C499.5 232.5 493.5 230 486.5 230S473.5 232.5 468.5 237.5L7.5 698.5C4.833 700.8330000000001 2.917 703.5830000000001 1.75 706.75S0 713.1669999999999 0 716.5V716.5z" />
    <glyph glyph-name="chevron-left"
      unicode="&#xE01E;"
      horiz-adv-x="1025" d="M717 0C720 0 723.084 0.583 726.251 1.75S732.334 4.833 735.001 7.5C740.001 12.5 742.501 18.5 742.501 25.5S740.001 38.5 735.001 43.5L292.001 486L735.001 929C740.001 934 742.501 940 742.501 947S740.001 960 735.001 965S723.918 972.5 716.751 972.5S703.501 970 698.501 965L238.001 504.5C233.001 499.5 230.501 493.4160000000001 230.501 486.25S233.001 473 238.001 468L698.501 7.5C701.168 4.833 704.084 2.917 707.251 1.75S713.668 0 717.001 0V0z" />
    <glyph glyph-name="chevron-right"
      unicode="&#xE01F;"
      horiz-adv-x="1025" d="M256 0C252.667 0 249.417 0.583 246.25 1.75S240.333 4.833 238 7.5C233 12.5 230.5 18.5 230.5 25.5S233 38.5 238 43.5L680.5 486L238 929C233 934 230.5 940 230.5 947S233 960 238 965S249 972.5 256 972.5S269 970 274 965L735 504.5C740 499.5 742.5 493.4160000000001 742.5 486.25S740 473 735 468L274 7.5C271.667 4.833 268.916 2.917 265.75 1.75S259.334 0 256 0V0z" />
    <glyph glyph-name="chevron-up"
      unicode="&#xE020;"
      horiz-adv-x="1025" d="M0 256C0 252.6670000000001 0.583 249.4160000000001 1.75 246.249S4.833 240.1660000000001 7.5 237.499C12.5 232.499 18.5 229.999 25.5 229.999S38.5 232.499 43.5 237.499L486.5 680.499L929 237.499C934 232.499 940.083 229.999 947.25 229.999S960.5 232.499 965.5 237.499S973 248.583 973 255.749S970.5 268.999 965.5 273.999L504.5 734.499C499.5 739.499 493.5 741.999 486.5 741.999S473.5 739.499 468.5 734.499L7.5 273.999C4.833 271.332 2.917 268.4160000000001 1.75 265.249S0 258.999 0 255.999V255.999z" />
    <glyph glyph-name="clapboard-play"
      unicode="&#xE021;"
      horiz-adv-x="1025" d="M896 921.5H77C55.666 921.5 37.5 914 22.5 899S0 865.833 0 844.5V179C0 157.667 7.5 139.5 22.5 124.5S55.666 102 77 102H896C917.333 102 935.5 109.5 950.5 124.5S973 157.667 973 179V844.5C973 865.833 965.5 884 950.5 899S917.333 921.5 896 921.5V921.5zM921.5 844.5V768H790L858.5 870H896C903 870 909 867.5 914 862.5S921.5 851.5 921.5 844.5V844.5zM585.5 768L653.5 870H797L728.5 768H585.5zM380.5 768L449 870H592L524 768H380.5zM176 768L244 870H387.5L319 768H176zM77 870H182.5L114.5 768H51V844.5C51 851.5 53.5 857.5 58.5 862.5S69.666 870 77 870V870zM896 153.5H77C69.666 153.5 63.5 156 58.5 161S51 172 51 179V716.5H921.5V179C921.5 172 919 166 914 161S903 153.5 896 153.5V153.5zM384 256C381.667 256 379.5 256.25 377.5 256.75S373.5 258 371.5 259C367.5 261.333 364.334 264.5 362 268.5S358.5 276.834 358.5 281.5V588.5C358.5 593.1669999999999 359.667 597.5 362 601.5S367.5 608.6669999999999 371.5 611S379.75 614.4169999999999 384.25 614.25S393 612.8330000000001 397 610.5L653 457C657 454.667 660.083 451.5 662.25 447.5S665.5 439.333 665.5 435S664.417 426.5 662.25 422.5S657 415.333 653 413L397 259.5C395 258.1670000000001 392.917 257.25 390.75 256.75S386.3330000000001 256 384 256V256zM409.5 543.5V326.5L590 435L409.5 543.5z" />
    <glyph glyph-name="clock"
      unicode="&#xE022;"
      horiz-adv-x="1024" d="M512 1008C238 1008 16 786 16 512S238 16 512 16S1008 238 1008 512S786 1008 512 1008zM512 112C291 112 112 291 112 512S291 912 512 912S912 733 912 512S733 112 512 112zM635.6 320.8L465.8 444.2C459.6 448.8 456 455.9999999999999 456 463.5999999999999V791.9999999999999C456 805.1999999999998 466.8 815.9999999999999 480 815.9999999999999H544C557.2 815.9999999999999 568 805.1999999999998 568 791.9999999999999V508.5999999999999L701.6 411.3999999999999C712.4 403.5999999999999 714.6 388.5999999999999 706.8000000000001 377.7999999999999L669.2 325.9999999999999C661.4000000000001 315.3999999999999 646.4000000000001 312.9999999999999 635.6 320.7999999999999z" />
    <glyph glyph-name="close-01"
      unicode="&#xE023;"
      horiz-adv-x="1025" d="M580.39001 512L827.8100099999999 759.42C834.0500099999999 765.66 834.0500099999999 775.8 827.8100099999999 782.04L782.5500099999999 827.3C776.3100099999999 833.54 766.1700099999999 833.54 759.9300099999999 827.3L512.51001 579.88L265.09001 827.3199999999999C258.85001 833.56 248.71001 833.56 242.47001 827.3199999999999L197.19001 782.06C190.95001 775.8199999999999 190.95001 765.6800000000001 197.19001 759.44L444.63001 512L197.19001 264.5800000000001C190.95001 258.3400000000001 190.95001 248.2000000000001 197.19001 241.9600000000001L242.45001 196.7000000000001C248.69001 190.46 258.83001 190.46 265.07001 196.7000000000001L512.51001 444.12L759.9300099999999 196.7000000000001C766.1700099999999 190.46 776.3100099999999 190.46 782.5500099999999 196.7000000000001L827.8100099999999 241.9600000000001C834.0500099999999 248.2000000000001 834.0500099999999 258.3400000000001 827.8100099999999 264.5800000000001L580.39001 512z" />
    <glyph glyph-name="close"
      unicode="&#xE024;"
      horiz-adv-x="1025" d="M1014.75 163.5C1035.25 143 1035.25 112.25 1014.75 91.75L932.75 9.75C912.25 -0.5 881.5 -0.5 861 9.75L512.5 358.25L164 9.75C143.5 -0.5 112.75 -0.5 92.25 9.75L10.25 91.75C0 112.25 0 143 10.25 163.5L358.75 512L10.25 860.5C0 881 0 911.75 10.25 932.25L92.25 1014.25C112.75 1024.5 143.5 1024.5 164 1014.25L512.5 665.75L861 1014.25C881.5 1024.5 912.25 1024.5 932.75 1014.25L1014.75 932.25C1035.25 911.75 1035.25 881 1014.75 860.5L666.25 512L1014.75 163.5z" />
    <glyph glyph-name="cog"
      unicode="&#xE025;"
      horiz-adv-x="1025" d="M390.5 15C389.5 15 388.5 15.083 387.5 15.25S385.5 15.667 384.5 16C361.5 21.667 339 29.083 317 38.25S273.666 58 253 70C247 73.667 243.084 78.833 241.25 85.5S240.167 98.5 243.5 104.5C247.5 111.833 250.583 119.667 252.75 128S256 144.833 256 153.5C256 167.5 253.333 180.75 248 193.25S235.333 216.584 226 225.75S205.833 242.25 193.5 247.75S167.833 256 153.5 256C145.166 256 136.833 254.9170000000001 128.5 252.75S112.166 247.5 104.5 243.5C98.5 240.1670000000001 92.166 239.4170000000001 85.5 241.25S73.834 247 70.5 253C58.166 273.334 47.5 294.5 38.5 316.5S22 361 16 384C14.333 390.6660000000001 15.083 396.9160000000001 18.25 402.75S26.166 412.6670000000001 32.5 415C53.5 422 70.416 434.4170000000001 83.25 452.25S102.5 490 102.5 512S96.084 553.9159999999999 83.25 571.75S53.5 602 32.5 609C26.166 611 21.416 614.9169999999999 18.25 620.75S14.333 632.8330000000001 16 639.5C22 662.5 29.5 685 38.5 707S58.166 750.333 70.5 771C73.833 776.667 78.834 780.417 85.5 782.25S98.5 783.5 104.5 780.5C112.166 776.167 120.166 773 128.5 771S145.167 768 153.5 768C167.834 768 181.167 770.667 193.5 776S216.667 788.583 226 797.75S242.667 817.75 248 830.25S256 856 256 870C256 878.667 254.917 887.167 252.75 895.5S247.5 911.667 243.5 919C240.167 925.333 239.417 931.833 241.25 938.5S247 950.167 253 953.5C273.666 965.5 295 976.083 317 985.25S361.5 1001.833 384.5 1007.5C390.834 1009.167 397 1008.417 403 1005.25S413 997.333 415 991C422 970.333 434.416 953.583 452.25 940.75S490 921.5 512 921.5S553.917 927.917 571.75 940.75S602 970.333 609 991C611 997.333 615 1002.083 621 1005.25S633.167 1009.167 639.5 1007.5C662.5 1001.833 685 994.417 707 985.25S750.333 965.5 771 953.5C777 950.167 780.917 945.167 782.75 938.5S783.833 925.333 780.5 919C776.5 911.667 773.417 903.833 771.25 895.5S768 878.667 768 870C768 856 770.667 842.75 776 830.25S788.667 806.917 798 797.75S818.167 781.333 830.5 776S856.167 768 870.5 768C878.833 768 887.167 769 895.5 771S911.833 776.167 919.5 780.5C925.5 783.5 931.833 784.083 938.5 782.25S950.167 776.667 953.5 771C965.833 750.333 976.5 729 985.5 707S1002 662.5 1008 639.5C1009.667 632.8330000000001 1008.917 626.5830000000001 1005.75 620.75S997.833 611 991.5 609C970.5 602 953.583 589.583 940.75 571.75S921.5 534 921.5 512S927.917 470.083 940.75 452.25S970.5 422 991.5 415C997.833 412.6670000000001 1002.583 408.583 1005.75 402.75S1009.667 390.6660000000001 1008 384C1002 361 994.5 338.5 985.5 316.5S965.833 273.3340000000001 953.5 253C950.167 247 945.167 243.084 938.5 241.25S925.5 240.1670000000001 919.5 243.5C911.833 247.5 903.833 250.583 895.5 252.75S878.833 256 870.5 256C856.167 256 842.833 253.25 830.5 247.75S807.333 234.9160000000001 798 225.75S781.333 205.75 776 193.25S768 167.5 768 153.5C768 144.833 769.083 136.333 771.25 128S776.5 111.833 780.5 104.5C783.833 98.5 784.583 92.167 782.75 85.5S777 73.667 771 70C750.333 58 729 47.417 707 38.25S662.5 21.667 639.5 16C633.167 14.333 627 15.083 621 18.25S611 26.167 609 32.5C602 53.5 589.583 70.333 571.75 83S534 102 512 102S470.084 95.667 452.25 83S422 53.5 415 32.5C413.3330000000001 27.167 410.25 22.917 405.75 19.75S396.166 15 390.5 15V15zM512 153.5C526.333 153.5 540.25 151.583 553.75 147.75S579.917 138.417 591.75 131.25S614.25 115.417 623.75 105.25S641.333 83.834 648 71.5C661.333 75.5 674.417 80.167 687.25 85.5S712.667 96.667 725 103C722.333 111.334 720.333 119.667 719 128S717 144.834 717 153.5C717 174.5 721 194.3340000000001 729 213S747.917 248 761.75 262S791.833 287 810.5 295S849.167 307 870.5 307C878.833 307 887.25 306.25 895.75 304.75S912.5 301.1670000000001 920.5 298.5C927.167 310.833 933.167 323.5 938.5 336.5S948.5 362.6660000000001 952.5 376C939.833 382.333 928.5 390.333 918.5 400S899.917 420.333 892.75 431.999S880.083 456.249 876.25 469.749S870.5 497.333 870.5 511.999C870.5 526.3330000000001 872.417 540.249 876.25 553.749S885.583 579.8330000000001 892.75 591.499S908.5 613.832 918.5 623.499S939.833 641.166 952.5 647.499C948.5 660.8320000000001 943.833 673.999 938.5 686.999S927.167 712.666 920.5 724.999C912.5 722.3320000000001 904.25 720.249 895.75 718.749S878.833 716.499 870.5 716.499C849.167 716.499 829.167 720.5820000000001 810.5 728.749S775.583 747.916 761.75 761.749S737 791.832 729 810.499S717 848.999 717 869.999C717 878.666 717.667 887.249 719 895.749S722.333 912.499 725 920.499C712.667 926.832 700.083 932.666 687.25 937.999S661.333 947.999 648 951.999C641.333 939.666 633.25 928.416 623.75 918.249S603.583 899.499 591.75 892.499S567.25 879.999 553.75 875.999S526.333 869.999 512 869.999S483.75 871.999 470.25 875.999S444.084 885.499 432.25 892.499S409.75 908.082 400.25 918.249S382.666 939.666 376 951.999C362.666 947.999 349.583 943.332 336.75 937.999S311.333 926.832 299 920.499C301.667 912.499 303.667 904.249 305 895.749S307 878.666 307 869.999C307 848.999 303 829.166 295 810.499S276.084 775.582 262.25 761.749S232.166 736.916 213.5 728.749S174.834 716.499 153.5 716.499C145.166 716.499 136.75 717.249 128.25 718.749S111.5 722.3320000000001 103.5 724.999C96.834 712.6659999999999 90.834 699.999 85.5 686.999S75.5 660.832 71.5 647.499C84.166 641.1659999999999 95.5 633.1659999999999 105.5 623.499S124.084 603.166 131.25 591.499S143.916 567.249 147.75 553.749S153.5 526.3330000000001 153.5 511.999C153.5 497.332 151.583 483.249 147.75 469.749S138.416 443.6660000000001 131.25 431.999S115.5 409.6660000000001 105.5 399.999S84.166 382.333 71.5 375.999C75.5 362.6650000000001 80.166 349.499 85.5 336.499S96.834 310.833 103.5 298.499C111.5 301.1660000000001 119.75 303.249 128.25 304.749S145.166 306.999 153.5 306.999C174.834 306.999 194.834 302.999 213.5 294.999S248.416 275.999 262.25 261.999S287 231.6650000000001 295 212.999S307 174.499 307 153.499C307 144.832 306.3330000000001 136.332 305 127.999S301.667 111.332 299 102.999C311.334 96.6660000000001 323.9170000000001 90.832 336.75 85.499S362.6670000000001 75.499 376 71.499C382.666 83.832 390.75 95.082 400.25 105.249S420.416 124.082 432.25 131.249S456.75 143.9150000000001 470.25 147.749S497.666 153.499 512 153.499V153.499zM512 358C490.666 358 470.75 362.083 452.25 370.25S417.5 389.4170000000001 403.5 403.25S378.5 433.333 370.5 452S358.5 490.667 358.5 512C358.5 533 362.5 552.8340000000001 370.5 571.5S389.5 606.417 403.5 620.25S433.75 645.083 452.25 653.25S490.666 665.5 512 665.5S553.25 661.4169999999999 571.75 653.25S606.5 634.083 620.5 620.25S645.5 590.167 653.5 571.5S665.5 533 665.5 512C665.5 490.667 661.5 470.667 653.5 452S634.5 417.083 620.5 403.25S590.25 378.4170000000001 571.75 370.25S533.333 358 512 358V358zM512 614C498 614 484.75 611.3330000000001 472.25 606S448.834 593.4169999999999 439.5 584.25S422.833 564.25 417.5 551.75S409.5 526 409.5 512C409.5 497.667 412.167 484.333 417.5 472S430.167 448.833 439.5 439.5S459.75 422.833 472.25 417.5S498 409.5 512 409.5S539.25 412.1670000000001 551.75 417.5S575.167 430.1670000000001 584.5 439.5S601.167 459.667 606.5 472S614.5 497.667 614.5 512C614.5 526 611.833 539.25 606.5 551.75S593.833 575.083 584.5 584.25S564.25 600.667 551.75 606S526 614 512 614V614z" />
    <glyph glyph-name="comment-02"
      unicode="&#xE026;"
      horiz-adv-x="1025" d="M512 960C229.2 960 0 773.8 0 544C0 448.8 39.8 361.6 105.8 291.4C76 212.6 14 145.8 13 145C-0.2 131 -3.8 110.6 3.8 93S28.8 64 48 64C171 64 268 115.4 326.2 156.6C384 138.4 446.4 128 512 128C794.8 128 1024 314.2000000000001 1024 544S794.8 960 512 960zM512 224C458.6 224 405.8 232.2000000000001 355.2 248.2000000000001L309.8 262.6L270.8 235C242.2 214.8 203 192.2000000000001 155.8 177C170.4 201.2000000000001 184.6 228.4 195.6 257.4L216.8 313.6L175.6 357.2000000000001C139.4 395.8000000000001 96 459.6 96 544C96 720.4000000000001 282.6 864 512 864S928 720.4000000000001 928 544S741.4 224 512 224z" />
    <glyph glyph-name="comment-alt"
      unicode="&#xE027;"
      horiz-adv-x="1025" d="M896 1024H128C57.4 1024 0 966.6 0 896V320C0 249.4 57.4 192 128 192H320V24C320 9.8 331.6 0 344 0C348.8 0 353.8 1.4 358.2 4.8L608 192H896C966.6 192 1024 249.4 1024 320V896C1024 966.6 966.6 1024 896 1024zM960 320C960 284.8 931.2 256 896 256H586.6L569.6 243.2000000000001L384 104V256H128C92.8 256 64 284.8 64 320V896C64 931.2 92.8 960 128 960H896C931.2 960 960 931.2 960 896V320z" />
    <glyph glyph-name="compare"
      unicode="&#xE028;"
      horiz-adv-x="1025" d="M7.321 21.4640000000001C0 28.7850000000001 0 50.75 7.321 58.071L388.0350000000001 438.7850000000001H248.9280000000001C234.2850000000001 438.7850000000001 219.642 453.4280000000001 219.642 468.0710000000001V482.7140000000002C219.642 497.3570000000002 234.2850000000001 512.0000000000002 248.9280000000001 512.0000000000002H475.8920000000001C497.8560000000001 512.0000000000002 512.499 497.3570000000002 512.499 475.3930000000001V248.4290000000001C512.499 233.7860000000001 497.856 219.143 483.213 219.143H468.5700000000001C453.927 219.143 439.2840000000001 233.7860000000001 439.2840000000001 248.4290000000001V387.5360000000001L58.5700000000001 6.8220000000001C51.2490000000001 -0.4989999999998 29.2840000000001 -0.4989999999998 21.9630000000001 6.8220000000001L7.3200000000001 21.4650000000001zM512.5 548.607V775.571C512.5 790.214 527.143 804.857 541.7860000000001 804.857H563.75C571.071 804.857 585.7139999999999 790.214 585.7139999999999 775.571V636.464L966.4279999999998 1017.1780000000002C973.749 1024.499 995.714 1024.499 1003.0349999999999 1017.1780000000002L1017.6779999999998 1002.535C1024.9989999999998 995.214 1024.9989999999998 973.249 1017.6779999999998 965.9280000000002L636.9639999999999 585.214H776.0709999999999C790.7139999999999 585.214 805.357 570.571 805.357 555.9280000000001V533.964C805.357 526.643 790.7139999999999 512 776.0709999999999 512H549.107C527.143 512 512.5 526.643 512.5 548.6070000000001z" />
    <glyph glyph-name="cover"
      unicode="&#xE029;"
      horiz-adv-x="1025" d="M929.96 252.603C879.244 253.603 842.09 267.6089999999999 803.344 303.873C852.4300000000001 313.751 892.6300000000001 350.8889999999999 905.374 400.9089999999999C944.152 547.9139999999999 910.74 711.9479999999999 817.01 832.4309999999998C724.282 953.5669999999998 578.169 1024.2959999999998 423.64 1023.9999999999998C298.754 1022.3339999999998 158.533 942.8279999999997 157.001 820.5549999999998C157.001 770.1529999999998 180.781 725.2309999999999 217.677 696.3189999999998V583.0269999999998L94.041 433.1819999999998L162.701 364.5219999999998L176.813 258.0339999999999C183.387 208.4359999999999 226.069 171.0359999999998 276.101 171.0359999999998H401.789L424.9409999999999 -0.0030000000002H838.0409999999999L816.333 43.4129999999998C782.399 111.2789999999998 763.007 186.5179999999998 759.747 262.3499999999998C804.5849999999999 219.4219999999998 855.347 194.0599999999998 928.782 192.6139999999998zM423.69 964C558.597 964.186 687.3969999999999 903.104 769.509 795.777C851.375 690.393 881.673 546.524 847.2330000000001 415.726C839.0590000000001 383.6520000000001 810.243 361.25 777.157 361.25C755.6410000000001 361.25 735.399 370.73 721.623 387.26L523.5060000000001 624.999C471.7380000000001 687.1210000000001 395.6700000000001 722.749 314.8070000000001 722.749C260.9890000000001 722.749 217.1850000000001 766.437 216.9990000000001 820.2090000000001C219.5590000000001 916.347 350.2320000000001 964 423.6900000000001 964zM477.364 60L454.212 231.039H276.099C256.041 231.039 238.927 246.035 236.293 265.919L219.509 392.567L175.021 437.0550000000001L277.677 561.469V667.203C289.593 664.317 302.019 662.749 314.8090000000001 662.749C377.8130000000001 662.749 437.081 634.989 477.414 586.589L675.531 348.8480000000001C682.573 340.398 690.5649999999999 332.9960000000001 699.247 326.6560000000001C696.237 237.0660000000001 708.375 143.6970000000001 743.097 60.0010000000001z" />
    <glyph glyph-name="cross"
      unicode="&#xE02A;"
      horiz-adv-x="1025" d="M548 486L837.502 775.5C842.502 780.5 845.002 786.5 845.002 793.5S842.502 806.5 837.502 811.5S826.419 819 819.252 819S806.002 816.5 801.002 811.5L512.002 522.5L223.002 811.5C218.002 816.5 211.918 819 204.752 819S191.502 816.5 186.502 811.5S179.002 800.5 179.002 793.5S181.502 780.5 186.502 775.5L476.002 486L186.502 197C181.502 192 179.002 186 179.002 179S181.502 166 186.502 161C189.169 158.333 192.085 156.417 195.252 155.25S201.669 153.5 205.002 153.5C208.002 153.5 211.085 154.083 214.252 155.25S220.335 158.333 223.002 161L512.002 450L801.002 161C803.669 158.333 806.5849999999999 156.417 809.752 155.25S816.002 153.5 819.002 153.5C822.3349999999999 153.5 825.5849999999999 154.083 828.752 155.25S834.8349999999999 158.333 837.502 161C842.502 166 845.002 172 845.002 179S842.502 192 837.502 197L548.002 486z" />
    <glyph glyph-name="cross2"
      unicode="&#xE02B;"
      horiz-adv-x="1025" d="M548 486L991.002 929C996.002 934 998.502 940 998.502 947S996.002 960 991.002 965S979.919 972.5 972.752 972.5S959.502 970 954.502 965L512.002 522.5L69.502 965C64.502 970 58.418 972.5 51.252 972.5S38.002 970 33.002 965S25.502 954 25.502 947S28.002 934 33.002 929L476.002 486L33.002 43.5C28.002 38.5 25.502 32.5 25.502 25.5S28.002 12.5 33.002 7.5C35.669 4.833 38.585 2.917 41.751 1.75S48.001 0 51.001 0C54.334 0 57.585 0.583 60.751 1.75S66.834 4.833 69.5 7.5L511.9999999999999 450L954.5 7.5C957.167 4.833 960.083 2.917 963.25 1.75S969.667 0 973 0C976 0 979.083 0.583 982.25 1.75S988.333 4.833 991 7.5C996 12.5 998.5 18.5 998.5 25.5S996 38.5 991 43.5L548 486z" />
    <glyph glyph-name="cube"
      unicode="&#xE02C;"
      horiz-adv-x="1025" d="M972.5 795.5L972.499 796.25V798.25C972.499 798.417 972.332 798.667 971.999 799V800C971.999 800.333 971.832 800.667 971.499 801V801.5C971.499 801.833 971.416 802.083 971.249 802.25S970.999 802.667 970.999 803L970.749 803.25C970.582 803.417 970.499 803.667 970.499 804L969.999 805C969.999 805.333 969.916 805.5 969.749 805.5H969.499C969.499 805.833 969.416 806.167 969.249 806.5S968.832 807.167 968.499 807.5L967.999 808C967.999 808.333 967.916 808.583 967.749 808.75L966.999 809.5V810L965.499 811.5C965.166 811.833 964.832 812.083 964.499 812.25S963.832 812.667 963.499 813V813.25C963.499 813.417 963.332 813.5 962.999 813.5L962.499 813.75C962.166 813.917 961.999 814.167 961.999 814.5H961.499L960.999 815L959.999 815.5C959.666 815.5 959.499 815.583 959.499 815.75V816C959.166 816 958.832 816.083 958.499 816.25S957.832 816.667 957.499 817H956.999L496.999 1021.5C493.666 1023.167 490.165 1024 486.499 1024S479.333 1023.167 475.999 1021.5L14.999 817C14.999 816.667 14.832 816.417 14.499 816.25S13.832 816 13.499 816L12.999 815.5C12.666 815.5 12.416 815.417 12.249 815.25S11.832 815 11.499 815C11.499 814.667 11.416 814.5 11.249 814.5H10.999L10.249 813.75C10.082 813.583 9.832 813.5 9.499 813.5V813.25C9.499 813.083 9.332 813 8.999 813L5.499 809.5C5.499 809.167 5.416 808.917 5.249 808.75L4.499 808V807.5C4.166 807.167 3.916 806.833 3.749 806.5S3.332 805.833 2.999 805.5V805.5V805C2.666 805 2.499 804.833 2.499 804.5S2.332 804 1.999 804V803C1.666 802.667 1.499 802.417 1.499 802.25V801.5L0.999 801C0.999 800.667 0.916 800.333 0.749 800S0.499 799.333 0.499 799V798C0.499 797.667 0.416 797.417 0.249 797.25S-0.001 796.833 -0.001 796.5V230C-0.001 225 1.416 220.417 4.249 216.25S10.666 209 15 207L476 2C476.333 1.667 476.667 1.5 477 1.5S477.667 1.333 478 1H478.5C478.833 1 479.25 0.917 479.75 0.75S480.667 0.5 481 0.5V0.5V0.5C482 0.167 482.917 0 483.75 0H489.25C490.083 0 490.833 0.167 491.5 0.5H492C492.333 0.5 492.667 0.583 493 0.75S493.667 1 494 1H494.5C494.833 1.333 495.167 1.5 495.5 1.5S496.167 1.667 496.5 2H497L957.5 207C962.167 209 965.917 212.083 968.75 216.25S973 225 973 230V793.5C973 793.833 972.917 794.167 972.75 794.5S972.5 795.167 972.5 795.5V795.5zM486.499 970L883.999 793.5L486.499 616.5L88.499 793.5L486.499 970zM50.999 754L460.999 572V65L50.999 247V754zM512 65V572L921.5 754V247L512 65z" />
    <glyph glyph-name="customer-service"
      unicode="&#xE02D;"
      horiz-adv-x="1025" d="M640.297 46.555C579.828 -3.375 493.328 -9.4680000000001 402.1560000000001 21.1329999999999C314.0860000000001 50.6959999999999 221.0470000000001 114.8439999999999 143.7580000000001 206.6249999999999C143.18 207.2339999999999 142.6410000000001 207.8749999999999 142.149 208.5389999999999C65.133 300.6479999999999 18.102 403.4299999999999 4.305 495.2659999999998C-10.062 590.9069999999999 11.328 675.4689999999998 71.883 726.2819999999998L72.2890000000001 726.6099999999998C87.3050000000001 738.8129999999998 109.9770000000001 735.8289999999997 134.578 721.0629999999998C153.344 709.8129999999998 174.766 691.2039999999997 194.523 667.8359999999998C195.086 667.2419999999997 195.601 666.6249999999998 196.078 665.9919999999997C215.2580000000001 642.9609999999998 235.9300000000001 611.7809999999997 249.945 584.5699999999998C267.75 550.0069999999998 274.2970000000001 518.3749999999998 257.843 504.5699999999998C239.148 488.8819999999998 228.562 466.9139999999999 226.57 444.1559999999999C224.578 421.3749999999999 231.2030000000001 397.8669999999999 246.914 379.1399999999999L330.016 280.1089999999999C345.704 261.406 367.6720000000001 250.82 390.43 248.828C413.211 246.836 436.719 253.461 455.446 269.1720000000001C471.837 282.9300000000001 501.829 270.9690000000001 532.759 247.4450000000001C575.845 214.672 627.361 162.0700000000001 647.251 110.148C657.274 83.96 656.524 61.523 642.759 48.664C641.986 47.883 641.165 47.187 640.298 46.555zM749.984 176.313C809.039 206.235 860.1560000000001 249.524 899.3430000000001 302.1960000000001C952.0150000000002 372.9770000000001 983.1870000000002 460.7660000000001 983.1870000000002 555.899C983.1870000000002 673.337 935.5850000000002 779.665 858.6240000000001 856.626S675.3430000000001 981.189 557.8970000000002 981.189C476.0140000000002 981.189 399.6240000000002 958.134 334.8660000000002 918.189C289.0850000000002 889.931 248.9210000000002 853.1579999999999 216.7410000000002 810.0409999999999C201.5220000000002 789.6659999999999 169.2180000000002 814.3299999999999 184.1780000000002 834.346C219.4120000000002 881.565 263.3730000000002 921.846 313.5060000000002 952.784C384.6470000000002 996.675 468.3650000000002 1022.003 557.8970000000002 1022.003C686.6000000000001 1022.003 803.1310000000002 969.831 887.4750000000001 885.48C971.8270000000002 801.136 1023.9980000000002 684.605 1023.9980000000002 555.902C1023.9980000000002 451.793 989.8030000000002 355.6130000000001 932.0210000000002 277.9640000000001C889.0600000000002 220.23 833.0680000000002 172.7840000000001 768.4120000000001 139.9870000000001C758.6070000000002 135.0100000000001 746.5370000000001 139.1120000000001 741.4430000000001 149.1350000000001C736.3570000000001 159.1660000000001 740.1770000000001 171.3300000000002 749.9820000000001 176.3070000000001zM685.516 148.797C674.4689999999999 148.797 665.516 139.8440000000001 665.516 128.797S674.4689999999999 108.797 685.516 108.797C696.555 108.797 705.516 117.75 705.516 128.797S696.555 148.797 685.516 148.797zM158.836 775.211C169.875 775.211 178.836 766.258 178.836 755.211S169.875 735.211 158.836 735.211C147.789 735.211 138.836 744.164 138.836 755.211S147.789 775.211 158.836 775.211zM836.953 535.492H861.703C872.9689999999999 535.492 882.1089999999999 544.625 882.1089999999999 555.898C882.1089999999999 567.164 872.968 576.3040000000001 861.703 576.3040000000001H836.953V706.4060000000001C836.953 717.672 827.8199999999999 726.8120000000001 816.547 726.8120000000001C809.57 726.8120000000001 803.414 723.3120000000001 799.734 717.9680000000001L675.5070000000001 568.8900000000001C668.3270000000001 560.2570000000001 669.5070000000001 547.4450000000002 678.1320000000001 540.2730000000001C681.937 537.1170000000001 686.546 535.5700000000002 691.124 535.5780000000001L796.14 535.4920000000001V445.5230000000002C796.14 434.2570000000002 805.281 425.1170000000002 816.5459999999999 425.1170000000002C827.819 425.1170000000002 836.9519999999999 434.2580000000002 836.9519999999999 445.5230000000002zM796.141 576.297H734.586L796.141 650.172zM500.813 626.133C500.813 642.664 507.508 657.633 518.3439999999999 668.469C529.1719999999999 679.297 544.141 686 560.6719999999999 686C577.2109999999999 686 592.18 679.297 603.0079999999999 668.469C613.8439999999999 657.633 620.5389999999999 642.664 620.5389999999999 626.133C620.5389999999999 610.336 614.4999999999999 598.836 604.4139999999999 589.258C592.3829999999999 577.836 574.0549999999998 568.016 552.8749999999999 557.453C501.6019999999999 531.875 462.4219999999999 455.0699999999999 462.3119999999999 454.851C457.1639999999999 444.8590000000001 461.0849999999999 432.578 471.0779999999999 427.429C474.0699999999999 425.89 477.2659999999999 425.156 480.4059999999999 425.163V425.116H640.9449999999999C652.2109999999999 425.116 661.3509999999999 434.249 661.3509999999999 445.522S652.2099999999999 465.9279999999999 640.9449999999999 465.9279999999999H516.375C529.789 485.7949999999998 549.5 510.1939999999998 571.055 520.944C595.164 532.9669999999999 616.328 544.444 632.4689999999999 559.7639999999999C650.539 576.9199999999998 661.352 597.5999999999999 661.352 626.1309999999999C661.352 653.9279999999999 650.086 679.0999999999999 631.86 697.319C613.641 715.5379999999999 588.477 726.8109999999999 560.672 726.8109999999999C532.875 726.8109999999999 507.711 715.5379999999999 489.492 697.319C471.265 679.0999999999999 460 653.9279999999999 460 626.1309999999999C460 614.8649999999999 469.133 605.7249999999999 480.406 605.7249999999999C491.672 605.7249999999999 500.812 614.866 500.812 626.1309999999999zM415.07 59.711C493.375 33.422 566.265 37.6560000000001 615.164 78.633L615.258 78.711C615.446 78.867 613.1020000000001 85.3200000000001 609.149 95.641C592.258 139.75 544.407 187.547 508.204 215.086C492.071 227.3590000000001 477.813 234.8590000000001 476.665 233.899C449.298 210.946 420.009 205.2820000000001 386.923 208.18C353.798 211.078 321.751 226.5709999999999 298.767 253.9609999999999L215.665 352.992C192.704 380.3589999999999 183.024 414.578 185.923 447.664C188.821 480.7809999999999 201.829 510.6949999999999 229.22 533.6800000000001C218.111 568.1179999999999 172.087 631.203 164.072 640.75C146.963 661.133 128.97 676.992 113.697 686.148C104.627 691.586 98.767 694.945 98.088 695.039C97.822 694.82 97.557 694.6010000000001 97.283 694.398C49.025 653.32 32.424 582.609 44.635 501.3200000000001C57.432 416.1400000000001 101.619 320.211 174.182 233.7420000000001L174.19 233.7340000000001C246.745 147.2650000000001 333.479 87.101 415.073 59.711zM415.07 59.711z" />
    <glyph glyph-name="delivery-man"
      unicode="&#xE02E;"
      horiz-adv-x="1025" d="M969.654 708.052H796.004C766.038 708.052 741.658 683.6600000000001 741.658 653.676V453.808H676.706C680.316 466.9299999999999 681.654 482.408 680.7760000000001 500.42V500.4219999999999C679.3660000000001 576.54 665.5540000000001 640.6919999999999 639.72 691.0959999999999C619.6600000000001 730.2299999999999 596.25 753.6919999999999 576.162 767.7179999999998C599.74 791.9599999999999 613.3720000000001 826.4459999999999 613.3720000000001 866.2199999999999C613.3720000000001 937.782 556.2860000000001 995.9999999999998 486.1200000000001 995.9999999999998S358.8680000000001 937.782 358.8680000000001 866.2199999999999C358.8680000000001 857.934 365.5840000000001 851.2199999999999 373.8680000000001 851.2199999999999H384.0600000000001C383.1220000000001 845.56 382.6220000000001 839.7919999999999 382.6220000000001 833.934C382.6220000000001 783.502 418.6580000000001 741.3519999999999 466.3020000000001 731.906C461.3080000000001 713.3619999999999 458.8260000000001 691.4959999999999 458.8360000000001 666.656L421.4240000000001 634.4779999999998L330.3940000000001 627.1159999999999L225.3880000000001 661.8279999999999C215.7640000000001 665.0279999999998 204.8560000000001 668.6439999999998 195.3920000000001 661.8199999999999C186.0660000000001 655.0899999999999 186.0660000000001 643.3079999999999 186.0660000000001 639.4379999999999V561.3679999999999C186.0660000000001 553.0819999999999 192.7820000000001 546.3679999999999 201.0660000000001 546.3679999999999H218.9240000000001L191.5340000000001 451.7199999999999C189.2320000000001 443.7639999999999 193.8160000000001 435.444 201.7740000000001 433.142C209.7360000000001 430.828 218.0500000000001 435.424 220.3540000000001 443.3799999999999L250.1580000000001 546.3679999999999H292.8020000000001C239.7620000000001 384.6239999999999 270.0260000000001 276.6599999999999 316.5440000000001 167.3979999999999H289.5800000000001L177.2740000000001 292.9699999999999L201.0220000000001 375.0099999999999C203.3260000000001 382.9679999999999 198.7420000000001 391.2859999999999 190.7840000000001 393.5879999999999S174.5080000000001 391.3059999999998 172.2040000000001 383.3499999999999L149.4900000000001 304.8759999999999C79.2380000000001 306.0479999999999 16.3980000000001 257.6119999999999 0.3840000000001 187.9259999999998C-1.4699999999999 179.8539999999998 3.5680000000001 171.8059999999998 11.6380000000001 169.9499999999998L32.9320000000001 165.0499999999999C27.4920000000001 108.5459999999998 64.7020000000001 55.2359999999999 121.4500000000001 42.1739999999999C130.0680000000001 40.1879999999999 138.7600000000001 39.2079999999999 147.3920000000002 39.2079999999999C168.6800000000002 39.2079999999999 189.5940000000001 45.1759999999998 208.0920000000002 56.7699999999999C229.8020000000002 70.3739999999999 245.9780000000002 90.3739999999999 254.7320000000002 114.0099999999999L271.5340000000002 110.1439999999999C276.5400000000002 108.9859999999999 281.2880000000002 108.3999999999999 286.0320000000002 110.9539999999998C290.4460000000002 113.3299999999998 293.3800000000002 117.6199999999999 294.4800000000002 122.4619999999999C295.5360000000001 127.3719999999999 296.3400000000002 132.3619999999999 296.8980000000002 137.3979999999999H610.6140000000001C620.6460000000002 75.0239999999999 673.7160000000001 28.0059999999999 737.0980000000002 28.0059999999999S853.5520000000001 75.0239999999999 863.5840000000002 137.3979999999999H875.0320000000002S877.3040000000002 137.372 877.8220000000001 137.372C882.1120000000001 137.372 888.3080000000001 137.848 893.3960000000001 143.024C895.9420000000001 145.614 898.9300000000001 150.2480000000001 898.7 157.61C898.278 171.696 896.1640000000001 185.3060000000001 892.556 198.242C904.504 270.778 893.008 314.9559999999999 875.966 349.53C886.74 356.592 893.884 368.76 893.884 382.584V423.81H969.65C999.616 423.81 1023.996 448.202 1023.996 478.1859999999999V653.6779999999999C1024 683.6599999999999 999.622 708.0519999999999 969.654 708.0519999999999zM192.162 82.186C172.96 70.152 150.24 66.326 128.184 71.404H128.182C87.586 80.7480000000001 60.502 117.9740000000001 62.476 158.226L225.182 120.778C218.45 104.928 207.06 91.5220000000001 192.162 82.186zM267.218 141.918L33.888 195.61C51.894 244.918 100.35 277.558 153.316 274.75L267.618 146.948C267.518 145.262 267.386 143.586 267.218 141.918zM493.788 403.308C489.434 391.824 489.434 377.666 489.434 358.068V301.464H434.5080000000001V379.1199999999999C434.5080000000001 466.9159999999999 482.424 482.5619999999999 503.9280000000001 485.1439999999999H650.9860000000001C650.3940000000001 465.2179999999998 645.8980000000001 451.0539999999999 637.3620000000001 442.0639999999999C627.4140000000001 431.5879999999999 610.392 426.4839999999998 585.32 426.4599999999998L531.4780000000001 426.4039999999998C512.278 426.4019999999998 499.5980000000001 418.6339999999998 493.7880000000001 403.3079999999998zM489.434 271.466V235.65C489.298 235.65 489.158 235.65 489.014 235.65H382.468C383.666 246.7579999999999 387.1260000000001 255.354 392.808 261.302C401.26 270.1460000000001 413.164 271.466 419.508 271.466zM650.324 515.142H513.91C508.432 532.38 503.5479999999999 551.256 499.532 570.656L541.006 597.576C563.646 612.278 575.424 633.052 573.3199999999999 654.5740000000001C571.4559999999999 673.652 558.486 690.694 540.2779999999999 697.988C523.6499999999999 704.648 505.7519999999999 702.556 489.9339999999999 692.442C491.2379999999999 706.79 493.6659999999999 719.598 497.1779999999999 730.47C503.5719999999999 731.1300000000001 509.9219999999999 732.3800000000001 516.1579999999999 734.214C528.8519999999999 737.162 540.5819999999999 741.8600000000001 551.1719999999999 748.09C580.0619999999999 730.83 643.6019999999999 674.846 650.324 515.142zM389.966 881.218C397.04 929.146 437.464 965.998 486.12 965.998C539.744 965.998 583.372 921.236 583.372 866.218C583.372 821.47 561.914 785.404 527.314 769.5319999999999V848.458C527.314 862.124 522.084 878.8879999999999 497.176 881.156C496.724 881.198 496.27 881.218 495.816 881.218zM412.624 833.932C412.624 839.852 413.298 845.634 414.624 851.218H495.08C496.006 851.1179999999999 496.682 851.01 497.1660000000001 850.912C497.244 850.356 497.3120000000001 849.556 497.3120000000001 848.458V760.7059999999999C493.7380000000001 760.18 490.1420000000001 759.914 486.5480000000001 759.912C486.5140000000001 759.912 486.4800000000001 759.912 486.448 759.912C445.7360000000001 759.95 412.624 793.14 412.624 833.932zM393.178 602.092L428.706 604.966C431.872 605.22 434.874 606.4739999999999 437.284 608.544L501.414 663.704C507.614 669.0459999999999 514.232 671.786 520.6759999999999 671.786C523.544 671.786 526.3779999999999 671.242 529.1239999999999 670.1419999999999C537.05 666.968 542.6779999999999 659.712 543.4659999999999 651.66C544.4559999999999 641.526 537.7799999999999 631.2539999999999 524.6739999999999 622.742L453.2239999999999 576.366H393.1819999999999V602.092zM329.786 596.9639999999999L363.178 599.664V576.362H324.376C319.346 576.362 318.12 580.5419999999999 317.976 584.048C317.894 586.036 318.082 596.0039999999999 329.786 596.9639999999999zM294.284 607.3199999999999C289.766 599.912 287.656 591.246 288.002 582.8199999999999C288.092 580.6379999999999 288.37 578.5360000000001 288.758 576.488C288.758 576.446 288.734 576.404 288.742 576.364H216.07V633.31L294.342 607.4359999999999C294.318 607.396 294.306 607.358 294.284 607.3199999999999zM324.46 546.364H457.662C460.56 546.364 463.398 547.204 465.828 548.7819999999999L472.618 553.19C475.884 538.754 479.604 524.706 483.656 511.438C453.064 502.408 404.506 473.226 404.506 379.122V299.9599999999999C393.982 297.8359999999999 381.532 292.9279999999999 371.118 282.03C360.14 270.5419999999999 353.87 254.976 352.366 235.652H322.106C291.614 323.5279999999999 280.018 417.04 324.46 546.3639999999999zM349.1840000000001 167.448C343.6400000000001 180.198 338.2960000000001 192.9 333.264 205.65H489.012C509.198 205.65 519.432 214.84 519.432 232.962V343.07H637.83C646.116 343.07 652.83 349.784 652.83 358.07S646.116 373.07 637.83 373.07H519.5400000000001C519.7320000000001 381.5899999999999 520.2780000000001 388.558 521.84 392.674C522.5980000000001 394.676 523.254 396.404 531.4920000000001 396.404L585.3480000000001 396.4600000000001C619.0780000000001 396.4920000000001 643.2080000000001 404.6520000000001 659.118 421.408C659.854 422.184 660.5500000000001 422.9980000000001 661.248 423.808H863.8900000000001V382.582C863.8900000000001 377.4260000000001 859.5440000000001 373.07 854.4000000000001 373.07H705.07C696.7840000000001 373.07 690.07 366.3559999999999 690.07 358.07S696.7840000000001 343.07 705.07 343.07H845.586C857.442 321.064 868.106 293.6819999999999 867.472 250.42C837.7959999999999 291.642 789.754 318.1479999999999 735.23 318.1479999999999C691.442 318.1479999999999 650.354 300.9719999999999 619.532 269.782C592.182 242.108 575.7560000000001 206.19 572.3760000000001 167.3979999999999zM737.1 58.002C690.208 58.002 650.6600000000001 91.788 641.092 137.394H833.108C823.5379999999999 91.792 783.9899999999999 58.002 737.0999999999999 58.002zM850.148 167.394H602.5060000000001C609.8700000000001 235.2200000000001 666.5820000000001 288.148 735.23 288.148C795.5 288.148 846.114 248.4060000000001 862.876 192.7720000000001C862.93 192.596 862.9839999999999 192.4200000000001 863.044 192.2460000000001C865.414 184.2640000000001 867.088 175.9560000000001 867.994 167.3940000000001zM994 478.184C994 464.742 983.078 453.808 969.654 453.808H771.658V531.27H994zM994 561.27H771.658V593.172H994zM994 623.172H771.658V653.676C771.658 667.118 782.58 678.052 796.004 678.052H969.654C983.078 678.052 994 667.116 994 653.676z" />
    <glyph glyph-name="delivery-svgrepo"
      unicode="&#xE02F;"
      horiz-adv-x="1025" d="M1014.448 489.798C983.707 530.7860000000001 952.966 530.7860000000001 877.8209999999999 491.505L802.6759999999999 445.1960000000001V845.027C802.6759999999999 872.3520000000001 780.4749999999999 896.2620000000001 751.4409999999999 896.2620000000001H597.7369999999999V913.34C597.7369999999999 923.587 590.9059999999998 930.418 580.6589999999999 930.418H409.8769999999999C399.6299999999998 930.418 392.7989999999999 923.587 392.7989999999999 913.34V896.2620000000001H239.0949999999999C211.7699999999999 896.2620000000001 187.8599999999999 874.061 187.8599999999999 845.027V537.615C161.1559999999998 526.866 136.9559999999999 512.962 119.5479999999999 501.8410000000001V537.6170000000002H-0.0010000000002V93.5820000000001H119.5459999999998V144.8170000000001H341.5619999999999C375.7189999999998 144.8170000000001 411.5829999999999 148.2330000000002 445.7389999999999 149.9400000000002L667.7549999999999 184.0970000000002C676.2949999999998 184.0970000000002 684.8329999999999 185.8040000000002 691.6649999999998 187.5130000000003C712.1589999999999 190.9290000000003 730.9459999999998 201.1760000000003 748.0229999999998 216.5470000000003L1005.9039999999998 421.4860000000002C1026.3999999999999 438.5640000000002 1029.8159999999998 469.3040000000002 1014.4459999999998 489.7980000000002zM426.955 896.261H563.582V761.344L505.517 807.4549999999999C500.394 812.578 491.854 812.578 485.023 807.4549999999999L426.9580000000001 761.344V896.261zM222.016 845.027C222.016 853.567 228.847 862.105 239.094 862.105H392.798V757.928C392.798 745.9739999999999 399.629 734.018 411.585 728.894C414.865 727.2529999999999 419.723 725.63 424.64 725.502C432.069 724.9259999999999 439.25 726.899 445.742 732.309L495.27 771.59L541.381 732.309C548.058 727.858 555.459 725.6 563.112 725.971C568.2919999999999 725.691 573.621 726.607 578.953 728.893C590.9069999999999 734.0160000000001 597.74 745.971 597.74 757.927V862.106H748.028C756.568 862.106 765.106 855.2750000000001 765.106 845.028V423.194L729.242 400.993C709.02 389.1969999999999 663.8639999999999 385.717 621.651 385.627C630.1869999999999 400.997 626.77 419.782 611.4019999999999 441.981C584.0769999999999 481.2619999999999 537.9659999999999 505.17 488.439 505.17H421.834C385.97 505.17 351.813 515.4169999999999 324.488 535.911C308.8109999999999 547.6669999999999 290.885 553.165 272.098 554.353C269.126 554.577 266.096 554.6969999999999 263.006 554.6969999999999C251.052 554.6969999999999 237.389 552.99 222.018 549.574V845.028zM85.392 127.741H34.157V503.462H85.392V127.741zM985.414 445.396L725.826 243.871L724.119 242.164C713.8720000000001 230.2100000000001 700.2090000000001 223.377 684.8380000000001 221.67C678.0070000000001 219.963 672.8840000000001 219.963 666.051 219.963L440.6180000000001 185.8059999999999C408.1700000000001 180.6829999999999 374.0130000000001 178.9749999999999 341.5650000000001 178.9749999999999H119.5470000000001V460.7659999999998C139.3440000000001 474.7899999999998 171.8880000000001 494.7849999999999 205.6370000000001 507.4819999999999C207.6800000000001 507.5119999999998 209.7260000000001 507.9019999999998 211.7690000000001 508.5849999999998C252.7570000000001 522.2479999999998 283.4980000000001 522.2479999999998 303.9920000000001 506.8779999999998C336.4400000000001 482.9679999999998 377.4280000000001 469.3069999999998 421.8320000000001 469.3069999999998H488.4370000000001C527.7180000000001 469.3069999999998 563.5820000000001 452.2289999999998 584.0760000000001 419.7789999999998C592.4380000000001 409.7459999999998 594.2390000000001 399.7289999999998 592.7080000000001 396.1089999999998C592.676 396.0309999999999 592.6500000000001 395.9409999999998 592.614 395.8689999999998C591.033 393.2349999999998 587.981 391.0899999999998 583.876 389.3309999999998C583.786 389.2929999999998 583.704 389.2549999999998 583.614 389.2169999999998C583.106 389.0029999999997 582.5590000000001 388.8049999999997 582.019 388.6029999999997C581.541 388.4269999999997 581.074 388.2469999999998 580.566 388.0769999999998C580.404 388.0209999999998 580.2320000000001 387.9709999999998 580.066 387.9169999999998C577.33 387.0239999999998 574.192 386.2079999999999 570.634 385.4829999999999C570.614 385.4789999999998 570.594 385.4749999999998 570.576 385.4709999999999C569.433 385.2389999999999 568.2420000000001 385.0189999999999 567.018 384.8069999999999C566.798 384.7689999999999 566.576 384.7309999999999 566.354 384.695C565.277 384.5129999999999 564.1690000000001 384.339 563.0300000000001 384.171C562.7680000000001 384.1329999999999 562.5060000000001 384.093 562.2410000000001 384.055C556.5870000000001 383.252 550.2030000000001 382.626 543.0880000000001 382.208C539.5540000000001 382.208 536.061 382.208 532.8410000000001 382.208C530.3670000000001 382.208 528.0500000000001 382.208 526.0100000000001 382.208H367.1820000000002C314.2400000000001 382.208 281.7900000000002 356.591 281.7900000000002 313.896C281.7900000000002 303.649 288.6210000000002 296.818 298.8680000000001 296.818S315.9460000000001 303.649 315.9460000000001 313.896C315.9460000000001 322.4359999999999 315.9460000000001 348.053 367.1810000000001 348.053H524.3010000000002C529.4240000000002 348.053 536.2550000000001 348.053 546.5020000000002 348.053C548.2090000000002 348.053 551.6250000000002 348.053 555.0420000000001 348.053C635.3100000000002 346.346 710.4530000000002 348.053 749.7340000000002 368.5470000000001L896.6100000000001 459.0600000000001C968.3390000000002 494.9240000000001 975.169 486.3850000000001 988.833 465.8910000000001C992.2490000000003 460.7700000000001 992.2490000000003 450.523 985.417 445.3990000000001z" />
    <glyph glyph-name="doctor-bag"
      unicode="&#xE030;"
      horiz-adv-x="1025" d="M757.765 715.812V835.8679999999999C757.765 913.258 694.805 976.217 617.419 976.217H402.159C324.773 976.217 261.813 913.257 261.813 835.8679999999999V715.804C131.458 701.209 29.787 590.3389999999999 29.787 456.1610000000001V122.4150000000001C29.787 85.0890000000001 60.146 54.7270000000001 97.472 54.7270000000001H922.11C959.432 54.7270000000001 989.787 85.0890000000001 989.787 122.4150000000001V456.1610000000001C989.787 590.339 888.119 701.2090000000001 757.764 715.8120000000001zM289.942 835.869C289.942 897.7429999999999 340.2820000000001 948.094 402.1600000000001 948.094H617.4200000000001C679.2940000000001 948.094 729.642 897.7429999999999 729.642 835.869V717.446C724.3950000000001 717.469 699.9590000000001 717.45 687.6890000000001 717.465V835.869C687.6890000000001 874.615 656.162 906.141 617.4200000000001 906.141H402.1600000000001C363.4180000000001 906.141 331.8910000000001 874.614 331.8910000000001 835.869V774.3290000000001C331.8910000000001 766.5540000000001 338.1930000000001 760.267 345.9530000000001 760.267C353.7240000000001 760.267 360.0150000000001 766.5540000000001 360.0150000000001 774.3290000000001V835.869C360.0150000000001 859.099 378.9260000000001 878.017 402.1600000000001 878.017H617.4200000000001C640.6610000000001 878.017 659.561 859.099 659.561 835.869V717.465C622.085 717.45 294.6970000000001 717.469 289.942 717.446zM94.997 82.982C74.558 84.511 57.915 101.6 57.915 122.952V177.84H203.132C210.895 177.84 217.194 184.1420000000001 217.194 191.9020000000001C217.194 199.6690000000001 210.895 205.971 203.132 205.971H57.915V456.1610000000001C57.915 584.7280000000001 162.516 689.34 291.091 689.34H728.492C856.785 689.34 961.664 584.9680000000001 961.664 456.1610000000001V205.971H272.44C264.684 205.971 258.378 199.669 258.378 191.9020000000001C258.378 184.1420000000001 264.6839999999999 177.84 272.44 177.84H961.664C961.641 117.8290000000001 961.724 122.865 961.54 119.9400000000001C959.959 98.8320000000001 942.179 83.148 922.652 82.8770000000001C922.254 82.869 98.6479999999999 82.753 94.9979999999999 82.9820000000001zM94.997 82.982zM361.108 360.616H440.796V280.92C440.796 273.157 447.091 266.858 454.858 266.858H564.721C572.484 266.858 578.783 273.157 578.783 280.92V360.616H658.471C666.242 360.616 672.533 366.911 672.533 374.678V484.533C672.533 492.3000000000001 666.242 498.595 658.471 498.595H578.783V578.291C578.783 586.0540000000001 572.484 592.3530000000001 564.721 592.3530000000001H454.858C447.091 592.3530000000001 440.796 586.0540000000001 440.796 578.291V498.595H361.108C353.341 498.595 347.046 492.3000000000001 347.046 484.533V374.678C347.046 366.911 353.341 360.616 361.108 360.616zM375.174 470.471H454.8579999999999C462.629 470.471 468.92 476.77 468.92 484.533V564.229H550.659V484.533C550.659 476.77 556.954 470.471 564.721 470.471H644.409V388.74H564.721C556.954 388.74 550.659 382.4410000000001 550.659 374.678V294.986H468.92V374.678C468.92 382.4410000000001 462.629 388.74 454.8579999999999 388.74H375.174zM375.174 470.471z" />
    <glyph glyph-name="document"
      unicode="&#xE031;"
      horiz-adv-x="1025" d="M845 0H179C158 0 140 7.5 125 22.5S102.5 55.5 102.5 76.5V896C102.5 917 110 935 125 950S158 972.5 179 972.5H845C866 972.5 884 965 899 950S921.5 917 921.5 896V76.5C921.5 55.5 914 37.5 899 22.5S866 0 845 0V0zM179 921.5C172 921.5 166 919 161 914S153.5 903 153.5 896V76.5C153.5 69.5 156 63.5 161 58.5S172 51 179 51H845C852 51 858 53.5 863 58.5S870.5 69.5 870.5 76.5V896C870.5 903 868 909 863 914S852 921.5 845 921.5H179zM640 768H281.5C274.5 768 268.5 770.5 263.5 775.5S256 786.5 256 793.5S258.5 806.5 263.5 811.5S274.5 819 281.5 819H640C647 819 653 816.5 658 811.5S665.5 800.5 665.5 793.5S663 780.5 658 775.5S647 768 640 768V768zM742.5 665.5H281.5C274.5 665.5 268.5 668 263.5 673S256 684 256 691S258.5 704 263.5 709S274.5 716.5 281.5 716.5H742.5C749.5 716.5 755.5 714 760.5 709S768 698 768 691S765.5 678 760.5 673S749.5 665.5 742.5 665.5V665.5zM742.5 563H281.5C274.5 563 268.5 565.5 263.5 570.5S256 581.5 256 588.5S258.5 601.5 263.5 606.5S274.5 614 281.5 614H742.5C749.5 614 755.5 611.5 760.5 606.5S768 595.5 768 588.5S765.5 575.5 760.5 570.5S749.5 563 742.5 563V563zM537.5 460.5H281.5C274.5 460.5 268.5 463 263.5 468S256 479 256 486C256 493.333 258.5 499.5 263.5 504.5S274.5 512 281.5 512H537.5C544.5 512 550.5 509.5 555.5 504.5S563 493.333 563 486C563 479 560.5 473 555.5 468S544.5 460.5 537.5 460.5V460.5zM742.5 256H281.5C274.5 256 268.5 258.5 263.5 263.5S256 274.5 256 281.5S258.5 294.5 263.5 299.5S274.5 307 281.5 307H742.5C749.5 307 755.5 304.5 760.5 299.5S768 288.5 768 281.5S765.5 268.5 760.5 263.5S749.5 256 742.5 256V256zM640 153.5H281.5C274.5 153.5 268.5 156 263.5 161S256 172 256 179S258.5 192 263.5 197S274.5 204.5 281.5 204.5H640C647 204.5 653 202 658 197S665.5 186 665.5 179S663 166 658 161S647 153.5 640 153.5V153.5z" />
    <glyph glyph-name="down"
      unicode="&#xE032;"
      horiz-adv-x="1025" d="M951.786 804.857C1010.357 804.857 1039.643 731.643 995.715 687.7139999999999L556.4289999999999 248.428C527.1429999999998 219.1420000000001 483.2149999999999 219.1420000000001 468.5719999999999 248.428L29.2859999999999 687.7139999999999C-29.2850000000001 731.643 14.6429999999999 804.857 73.2149999999999 804.857H951.786z" />
    </font>
</defs>
</svg>
